Достать ножи: Стеклянная луковица

MVO

Добыча

Дубляж

Уэнсдэй

1 сезон

Тор

Дубляж

13 клиническая

1 сезон

Жестокая ночь

MVO

Одни из нас

1 сезон

Deluxe

pack

Рекомендуем

30

Пиратка

ВАЖНО

ВАЖНО

Ghostwire

Пиратка

jed

RePack

nioh2

RePack

RDR2

RePack

NEED FOR SPEED™ PAYBACK

RePack

скачать торрент

Кинопоиск HD

Острые козырьки 6 сезон

6 сезон

FAR CRY 6

RePack

скачать торрент

Лицензия

скачать торрент

MVO

1

1 сезон

скачать торрент

1 сезон

скачать торрент

Лицензия

  

Хантер Киллер / Hunter Killer (Донован Марш) [2018, боевик, триллер, UHD BDRip 2160p] Дубляж [Лицензия]

Хантер Киллер через торрент piratbit.org

Размер: 13.14 GB | Добавлен: 3 года 8 мес. назад | Торрент скачан:95 раз
Смотреть онлайн | Скачать | Поддержите нас   

25-01-2019 07:16 Хантер Киллер Скачать торрент  

Хантер Киллер / Hunter Killer«Courage Runs Deep»

Год выпуска: 2018
Страна: США
Жанр: боевик, триллер
Продолжительность: 02:01:42
Перевод: Дублированный [Лицензия]
Субтитры: Русские (Full), Английские
Режиссер: Донован Марш
В ролях:

Джерард Батлер (Captain Joe Glass), Гари Олдман (CJCS Charles Donnegan), Коммон (RADM John Fisk), Зейн Холц (Paul Martinelli), Микаэл Нюквист (Captain Andropov), Тоби Стивенс (Bill Beaman), Линда Карделлини (Jayne Norquist), Этан Бейрд (Sonar 3), Джейкоб Скипио (Sonar 2), Демпси Бовелл (Sonar 1), Кори Джонсон (Captain), Адам Джеймс (Captain Forbes)
Описание:
Американская атомная подлодка «Хантер Киллер» вместе с подразделением военно-морских сил США вступает в крайне рискованную боевую авантюру по спасению мира от катастрофы. Когда время на исходе и каждая минута на счету, элитной команде придется совершить невозможное, чтобы предотвратить конфликт мирового масштаба.
Рейтинг:

MPAA: R - Лицам до 17 лет обязательно присутствие взрослого
Качество: UHD BDRip 2160p
Формат: MKV
Видео: HEVC, 12700 Кбит/c, 3840x1606, 23.976 Кадр/с, 10 bit
Аудио #01: 48 kHz, DTS, 5.1, 1510 Kbps | Лицензия | RUS |
Аудио #02: 48 kHz, AC3, 5.1, 640 Kbps | Лицензия | RUS |
Аудио #03: 48 kHz, AC3, 5.1, 640 Kbps | Оригинал | ENG |
Навигация по главам: есть

Общее
Уникальный идентификатор : 243659240074146805999970736149429863306 (0xB74F100B0BB1FBBDBEEB7954A3C1C38A)
Полное имя : D:\Мои раздачи\Передел\Hunter.Killer.2018.2160p.UHD.BDRip.x265.10bit.Master5.mkv
Формат : Matroska
Версия формата : Version 4 / Version 2
Размер файла : 13,1 Гбайт
Продолжительность : 2 ч. 1 м.
Общий поток : 15,5 Мбит/сек
Название фильма : Hunter.Killer.2018.2160p.UHD.BDRip.x265.10bit.Master5
Дата кодирования : UTC 2019-05-31 13:15:14
Программа кодирования : mkvmerge v7.9.0 ('Birds') 64bit
Библиотека кодирования : libebml v1.3.1 + libmatroska v1.4.2
Обложка : Yes
Attachments : small_cover.jpg / small_cover_land.jpg / cover.jpg / cover_land.jpg

Видео
Идентификатор : 1
Формат : HEVC
Формат/Информация : High Efficiency Video Coding
Коммерческое название : HDR10
Профиль формата : Main 10@L5.1@High
Идентификатор кодека : V_MPEGH/ISO/HEVC
Продолжительность : 2 ч. 1 м.
Битрейт : 12,7 Мбит/сек
Ширина : 3840 пикселей
Высота : 1606 пикселей
Соотношение сторон : 2,40:1
Режим частоты кадров : Постоянный
Частота кадров : 23,976 (24000/1001) кадра/сек
Цветовое пространство : YUV
Субдискретизация насыщенности : 4:2:0 (Type 2)
Битовая глубина : 10 бит
Бит/(Пиксели*Кадры) : 0.086
Размер потока : 10,8 Гбайт (82%)
Заголовок : Hunter.Killer.2018.2160p.UHD.BDRip.x265.10bit.Master5
Библиотека кодирования : x265 3.0_RC+7-0614145ecaf2:[Windows][GCC 8.2.1][64 bit] 10bit
Настройки программы : cpuid=1111039 / frame-threads=16 / numa-pools=24,24,24,24 / wpp / no-pmode / no-pme / no-psnr / no-ssim / log-level=2 / input-csp=1 / input-res=3840x1606 / interlace=0 / total-frames=0 / level-idc=51 / high-tier=1 / uhd-bd=0 / ref=3 / no-allow-non-conformance / repeat-headers / annexb / aud / hrd / info / hash=0 / no-temporal-layers / no-open-gop / min-keyint=1 / keyint=24 / gop-lookahead=0 / bframes=4 / b-adapt=2 / b-pyramid / bframe-bias=0 / rc-lookahead=25 / lookahead-slices=4 / scenecut=40 / radl=0 / no-splice / no-intra-refresh / ctu=64 / min-cu-size=8 / no-rect / no-amp / max-tu-size=32 / tu-inter-depth=1 / tu-intra-depth=1 / limit-tu=0 / rdoq-level=0 / dynamic-rd=0.00 / no-ssim-rd / signhide / no-tskip / nr-intra=0 / nr-inter=0 / no-constrained-intra / strong-intra-smoothing / max-merge=2 / limit-refs=3 / no-limit-modes / me=1 / subme=2 / merange=57 / temporal-mvp / weightp / no-weightb / no-analyze-src-pics / deblock=0:0 / no-sao / no-sao-non-deblock / rd=3 / no-early-skip / rskip / no-fast-intra / no-tskip-fast / no-cu-lossless / no-b-intra / no-splitrd-skip / rdpenalty=0 / psy-rd=2.00 / psy-rdoq=0.00 / no-rd-refine / no-lossless / cbqpoffs=0 / crqpoffs=0 / rc=crf / crf=16.0 / qcomp=0.60 / qpstep=4 / stats-write=0 / stats-read=0 / vbv-maxrate=160000 / vbv-bufsize=160000 / vbv-init=0.9 / crf-max=0.0 / crf-min=0.0 / ipratio=1.40 / pbratio=1.30 / aq-mode=1 / aq-strength=1.00 / cutree / zone-count=0 / no-strict-cbr / qg-size=32 / no-rc-grain / qpmax=69 / qpmin=0 / no-const-vbv / sar=1 / overscan=0 / videoformat=5 / range=0 / colorprim=9 / transfer=16 / colormatrix=9 / chromaloc=1 / chromaloc-top=2 / chromaloc-bottom=2 / display-window=0 / master-display=G(13250,34500)B(7500,3000)R(34000,16000)WP(15635,16450)L(10000000,01) / max-cll=1000,471 / min-luma=0 / max-luma=1023 / log2-max-poc-lsb=8 / vui-timing-info / vui-hrd-info / slices=1 / opt-qp-pps / opt-ref-list-length-pps / no-multi-pass-opt-rps / scenecut-bias=0.05 / no-opt-cu-delta-qp / no-aq-motion / hdr / hdr-opt / no-dhdr10-opt / no-idr-recovery-sei / analysis-reuse-level=5 / scale-factor=0 / refine-intra=0 / refine-inter=0 / refine-mv=0 / refine-ctu-distortion=0 / no-limit-sao / ctu-info=0 / no-lowpass-dct / refine-analysis-type=0 / copy-pic=1 / max-ausize-factor=1.0 / no-dynamic-refine / no-single-sei / no-hevc-aq / qp-adaptation-range=1.00
Default : Да
Forced : Нет
Цветовой диапазон : Limited
Основные цвета : BT.2020
Характеристики трансфера : PQ
Коэффициенты матрицы : BT.2020 non-constant
MasteringDisplay_ColorPrimaries : Display P3
MasteringDisplay_Luminance : min: 0.0001 cd/m2, max: 1000 cd/m2
MaxCLL : 1000 cd/m2
MaxFALL : 471 cd/m2

Аудио #1
Идентификатор : 2
Формат : DTS
Формат/Информация : Digital Theater Systems
Идентификатор кодека : A_DTS
Продолжительность : 2 ч. 1 м.
Вид битрейта : Постоянный
Битрейт : 1509 Кбит/сек
Каналы : 6 каналов
Расположение каналов : Front: L C R, Side: L R, LFE
Частота : 48,0 КГц
Частота кадров : 93,750 кадра/сек (512 SPF)
Битовая глубина : 24 бит
Метод сжатия : С потерями
Размер потока : 1,28 Гбайт (10%)
Заголовок : Дубляж License
Язык : Russian
Default : Да
Forced : Да

Аудио #2
Идентификатор : 3
Формат : AC-3
Формат/Информация : Audio Coding 3
Идентификатор кодека : A_AC3
Продолжительность : 2 ч. 1 м.
Вид битрейта : Постоянный
Битрейт : 640 Кбит/сек
Каналы : 6 каналов
Расположение каналов : Front: L C R, Side: L R, LFE
Частота : 48,0 КГц
Частота кадров : 31,250 кадров/сек (1536 SPF)
Битовая глубина : 16 бит
Метод сжатия : С потерями
Размер потока : 557 Мбайт (4%)
Заголовок : Дубляж License
Язык : Russian
ServiceKind/String : Complete Main
Default : Нет
Forced : Нет

Аудио #3
Идентификатор : 4
Формат : AC-3
Формат/Информация : Audio Coding 3
Идентификатор кодека : A_AC3
Продолжительность : 2 ч. 1 м.
Вид битрейта : Постоянный
Битрейт : 640 Кбит/сек
Каналы : 6 каналов
Расположение каналов : Front: L C R, Side: L R, LFE
Частота : 48,0 КГц
Частота кадров : 31,250 кадров/сек (1536 SPF)
Битовая глубина : 16 бит
Метод сжатия : С потерями
Размер потока : 557 Мбайт (4%)
Заголовок : Original
Язык : English
ServiceKind/String : Complete Main
Default : Нет
Forced : Нет

Текст #1
Идентификатор : 5
Формат : UTF-8
Идентификатор кодека : S_TEXT/UTF8
Идентификатор кодека/Информация : UTF-8 Plain Text
Продолжительность : 1 ч. 50 м.
Битрейт : 74 бит/сек
ElementCount : 1171
Размер потока : 60,6 Кбайт (0%)
Заголовок : Full
Язык : Russian
Default : Нет
Forced : Нет

Текст #2
Идентификатор : 6
Формат : UTF-8
Идентификатор кодека : S_TEXT/UTF8
Идентификатор кодека/Информация : UTF-8 Plain Text
Продолжительность : 1 ч. 49 м.
Битрейт : 48 бит/сек
ElementCount : 1255
Размер потока : 38,6 Кбайт (0%)
Заголовок : Full
Язык : English
Default : Нет
Forced : Нет

Текст #3
Идентификатор : 7
Формат : UTF-8
Идентификатор кодека : S_TEXT/UTF8
Идентификатор кодека/Информация : UTF-8 Plain Text
Продолжительность : 1 ч. 50 м.
Битрейт : 55 бит/сек
ElementCount : 1525
Размер потока : 44,9 Кбайт (0%)
Заголовок : SDH
Язык : English
Default : Нет
Forced : Нет

Меню
00:00:00.000 : :chapter01
00:06:19.629 : :chapter02
00:14:56.354 : :chapter03
00:20:00.449 : :chapter04
00:28:19.323 : :chapter05
00:38:31.184 : :chapter06
00:46:29.078 : :chapter07
00:54:15.752 : :chapter08
01:00:26.081 : :chapter09
01:09:39.967 : :chapter10
01:15:48.919 : :chapter11
01:23:29.087 : :chapter12
01:30:17.662 : :chapter13
01:39:23.249 : :chapter14
01:44:53.954 : :chapter15
01:51:35.689 : :chapter16



Скачать Хантер Киллер через торрент https://d.radikal.ru/d30/1901/19/46c4b337068e.png Скачать, смотреть онлайн Хантер Киллер бесплантно в хорошем качестве Описание: Американская атомная подлодка «Хантер Киллер» вместе с подразделением военно-морских сил США вступает в крайне рискованную боевую ... 9.4 10 10
Торрент: Зарегистрирован [2019-05-31 15:17] · скачан: 95 раз
Статус: √ проверено
Размер: 13.14 GB
Как cкачать? Как скачать Хантер Киллер через торрент | UTorrent

% Раздел Тема Автор DL S | L
Фильмы 2018 [DVDrip, WEB-DLRip, HDrip] (DUB, MVO) [ 1.91 GB ] Хантер Киллер / Hunter Killer | Лицензия | BDRip-AVC bober100 Скачать
1 | 0
Ultra HD (UHD: 2K, 4K, 8K) [ 59.35 GB ] Хантер Киллер / Hunter Killer | Лицензия | 2160p bober100 Скачать
1 | 0
Фильмы (Blu-ray, BD-Remux, HDDVD) [ 35.79 GB ] Хантер Киллер / Hunter Killer | Лицензия | BD Remux 1080p bober100 Скачать
1 | 0
Фильмы [HD 720p, 1080p] (Хороший звук DUB, MVO) [ 5.86 GB ] Хантер Киллер / Hunter Killer | Лицензия | 720p bober100 Скачать
1 | 0
Фильмы [HD 720p, 1080p] (Хороший звук DUB, MVO) [ 13.03 GB ] Хантер Киллер / Hunter Killer | Лицензия | 1080p bober100 Скачать
1 | 0
Фильмы 2018 [DVDrip, WEB-DLRip, HDrip] (DUB, MVO) [ 2.18 GB ] Хантер Киллер / Hunter Killer | Лицензия Blu-Ray RUS | BDRip bober100 Скачать
1 | 0
Фильмы 2018 [DVDrip, WEB-DLRip, HDrip] (DUB, MVO) [ 1.46 GB ] Хантер Киллер / Hunter Killer | Лицензия Blu-Ray RUS | BDRip bober100 Скачать
1 | 0

28-11-2019 20:33  


Отключить вcю реклaмy на сайте, в т.ч. и в плеере онлайн просмотра!

20-05-2021 14:54 Хантер Киллер Скачать торрент  

хорошо смотрится фильм



07-01-2023 13:02 Хантер Киллер Скачать торрент  

влажные фантазии америкосов



    Дорогой пользователь! Огромная просьба, поблагодарите релизера, оцените раздачу и оставьте свои комментарий, если Вы скачали Хантер Киллер через торрент бесплатно!!
    Комментировать посты могут только пользователи прошедшие не сложную регистрацию
    Показать сообщения:    


    Хантер Киллер через торрент
    Скачать бесплатно Хантер Киллер
    Хантер Киллер скачать торрент
    Хантер Киллер смотреть онлайн
    Cкачать фильм Хантер Киллер бесплатно
    Хантер Киллер скачать торрент в хорошем качестве
    Хантер Киллер смотреть онлайн бесплатно в хорошем качестве
    Вы не можете начинать темы
    Вы не можете отвечать на сообщения
    Вы не можете редактировать свои сообщения
    Вы не можете удалять свои сообщения
    Вы не можете голосовать в опросах
    Вы не можете прикреплять файлы к сообщениям
    Вы можете скачивать файлы
    Хантер Киллер / Hunter Killer [2018, боевик, триллер, UHD BDRip 2160p] Дубляж [Лицензия] смотреть онлайн, скачать торрент picoco.icu