Достать ножи: Стеклянная луковица

MVO

Добыча

Дубляж

Уэнсдэй

1 сезон

Тор

Дубляж

13 клиническая

1 сезон

Жестокая ночь

MVO

Одни из нас

1 сезон

Deluxe

pack

Рекомендуем

30

Пиратка

ВАЖНО

ВАЖНО

Ghostwire

Пиратка

jed

RePack

nioh2

RePack

RDR2

RePack

NEED FOR SPEED™ PAYBACK

RePack

скачать торрент

Кинопоиск HD

Острые козырьки 6 сезон

6 сезон

FAR CRY 6

RePack

скачать торрент

Лицензия

скачать торрент

MVO

1

1 сезон

скачать торрент

1 сезон

скачать торрент

Лицензия

  

Хантер Киллер / Hunter Killer (Донован Марш) [2018, боевик, триллер, UHD BDRemux 2160p] Дубляж [iTunes] [Dolby Vision TV]

Хантер Киллер через торрент piratbit.org

Размер: 59.66 GB | Добавлен: 4 года назад | Торрент скачан:56 раз
Смотреть онлайн | Скачать | Поддержите нас   

25-01-2019 10:01 Хантер Киллер Скачать торрент  

Хантер Киллер / Hunter Killer«Courage Runs Deep»

Год выпуска: 2018
Страна: США
Жанр: боевик, триллер
Продолжительность: 02:01:42
Перевод: Дублированный [iTunes]
Режиссер: Донован Марш
В ролях:

Джерард Батлер (Captain Joe Glass), Гари Олдман (CJCS Charles Donnegan), Коммон (RADM John Fisk), Зейн Холц (Paul Martinelli), Микаэл Нюквист (Captain Andropov), Тоби Стивенс (Bill Beaman), Линда Карделлини (Jayne Norquist), Этан Бейрд (Sonar 3), Джейкоб Скипио (Sonar 2), Демпси Бовелл (Sonar 1), Кори Джонсон (Captain), Адам Джеймс (Captain Forbes)
Описание:
Американская атомная подлодка «Хантер Киллер» вместе с подразделением военно-морских сил США вступает в крайне рискованную боевую авантюру по спасению мира от катастрофы. Когда время на исходе и каждая минута на счету, элитной команде придется совершить невозможное, чтобы предотвратить конфликт мирового масштаба.
Рейтинг:

MPAA: R - Лицам до 17 лет обязательно присутствие взрослого
Качество: UHD BDRemux 2160p | Dolby Vision TV
Формат: MP4
Видео: HEVC, 62.1 Mбит/с, 3840x2160
Аудио : 48 kHz, AC3, 5.1, 384 Kbps | Дубляж iTunes | RUS |
Данный вид релизов (контейнер MP4) предназначен для встроенного в ТВ (соответственно, с поддержкой DV) плеер.
Т.Е. Можно использовать как USB flash/HDD, так и DLNA / Plex - подобные сервисы/программы. дополнительный-внешний плеер не обязателен.

Внимание!
На моделях LG 2016 возможны сюрпризы "через раз", 2017-2018 должно идти без сюрпризов )
Общее
Полное имя : Hunter.Killer.2018.UHD.BDRemux.2160p.DV.IVA.RUS.ExKinoRay.mp4
Формат : MPEG-4
Профиль формата : Base Media / Version 2
Идентификатор кодека : mp42 (mp42/iso6/isom/msdh/dby1)
Размер файла : 59,7 Гбайт
Продолжительность : 2 ч. 1 м.
Общий поток : 70,2 Мбит/сек
Дата кодирования : UTC 2019-01-25 08:34:11
Дата пометки : UTC 2019-01-25 08:34:11

Видео #1
Идентификатор : 1
Формат : HEVC
Формат/Информация : High Efficiency Video Coding
Коммерческое название : HDR10
Профиль формата : Main 10@L5.1@High
Идентификатор кодека : hev1
Идентификатор кодека/Информация : High Efficiency Video Coding
Продолжительность : 2 ч. 1 м.
Битрейт : 62,1 Мбит/сек
Ширина : 3840 пикселей
Высота : 2160 пикселей
Соотношение сторон : 16:9
Режим частоты кадров : Постоянный
Частота кадров : 23,976 (24000/1001) кадра/сек
Цветовое пространство : YUV
Субдискретизация насыщенности : 4:2:0 (Type 2)
Битовая глубина : 10 бит
Бит/(Пиксели*Кадры) : 0.312
Размер потока : 52,8 Гбайт (88%)
Default : Нет
Дата кодирования : UTC 2019-01-25 08:34:11
Дата пометки : UTC 2019-01-25 08:34:11
Цветовой диапазон : Limited
Основные цвета : BT.2020
Характеристики трансфера : PQ
Коэффициенты матрицы : BT.2020 non-constant
MasteringDisplay_ColorPrimaries : Display P3
MasteringDisplay_Luminance : min: 0.0001 cd/m2, max: 1000 cd/m2
MaxCLL : 1000 cd/m2
MaxFALL : 471 cd/m2
Codec configuration box : hvcC

Видео #2
Идентификатор : 2
Формат : HEVC
Формат/Информация : High Efficiency Video Coding
Коммерческое название : HDR10
Профиль формата : Main 10@L5.1@High
Dolby Vision : 1.0, dvhe.07.06, EL+RPU
Идентификатор кодека : dvhe
Идентификатор кодека/Информация : High Efficiency Video Coding with Dolby Vision
Продолжительность : 2 ч. 1 м.
Битрейт : 7696 Кбит/сек
Ширина : 1920 пикселей
Высота : 1080 пикселей
Соотношение сторон : 16:9
Режим частоты кадров : Постоянный
Частота кадров : 23,976 (24000/1001) кадра/сек
Цветовое пространство : YUV
Субдискретизация насыщенности : 4:2:0 (Type 2)
Битовая глубина : 10 бит
Бит/(Пиксели*Кадры) : 0.155
Размер потока : 6,54 Гбайт (11%)
Default : Нет
Дата кодирования : UTC 2019-01-25 08:34:11
Дата пометки : UTC 2019-01-25 08:34:11
Цветовой диапазон : Limited
Основные цвета : BT.2020
Характеристики трансфера : PQ
Коэффициенты матрицы : BT.2020 non-constant
MasteringDisplay_ColorPrimaries : Display P3
MasteringDisplay_Luminance : min: 0.0001 cd/m2, max: 1000 cd/m2
Codec configuration box : hvcC+dvcC

Аудио
Идентификатор : 3
Формат : AC-3
Формат/Информация : Audio Coding 3
Коммерческое название : Dolby Digital
Идентификатор кодека : ac-3
Продолжительность : 2 ч. 1 м.
Вид битрейта : Постоянный
Битрейт : 384 Кбит/сек
Каналы : 6 каналов
Channel layout : L R C LFE Ls Rs
Частота : 48,0 КГц
Частота кадров : 31,250 кадров/сек (1536 SPF)
Битовая глубина : 16 бит
Метод сжатия : С потерями
Размер потока : 334 Мбайт (1%)
Язык : Russian
ServiceKind/String : Complete Main
Default : Нет
Дата кодирования : UTC 2019-01-25 08:34:11
Дата пометки : UTC 2019-01-25 08:34:11



Скачать Хантер Киллер через торрент https://c.radikal.ru/c08/1901/77/737ba8118755.png Скачать, смотреть онлайн Хантер Киллер бесплантно в хорошем качестве Описание: Американская атомная подлодка «Хантер Киллер» вместе с подразделением военно-морских сил США вступает в крайне рискованную боевую ... 10 10 4
Торрент: Зарегистрирован [2019-01-25 10:01] · скачан: 56 раз
Статус: √ проверено
Размер: 59.66 GB
Как cкачать? Как скачать Хантер Киллер через торрент | UTorrent

% Раздел Тема Автор DL S | L
Ultra HD (UHD: 2K, 4K, 8K) [ 13.14 GB ] Хантер Киллер / Hunter Killer | Лицензия | 2160p sheker187 Скачать
1 | 0
Фильмы 2018 [DVDrip, WEB-DLRip, HDrip] (DUB, MVO) [ 1.91 GB ] Хантер Киллер / Hunter Killer | Лицензия | BDRip-AVC bober100 Скачать
1 | 0
Ultra HD (UHD: 2K, 4K, 8K) [ 59.35 GB ] Хантер Киллер / Hunter Killer | Лицензия | 2160p bober100 Скачать
1 | 0
Фильмы (Blu-ray, BD-Remux, HDDVD) [ 35.79 GB ] Хантер Киллер / Hunter Killer | Лицензия | BD Remux 1080p bober100 Скачать
1 | 0
Фильмы [HD 720p, 1080p] (Хороший звук DUB, MVO) [ 5.86 GB ] Хантер Киллер / Hunter Killer | Лицензия | 720p bober100 Скачать
1 | 0
Фильмы [HD 720p, 1080p] (Хороший звук DUB, MVO) [ 13.03 GB ] Хантер Киллер / Hunter Killer | Лицензия | 1080p bober100 Скачать
1 | 0
Фильмы 2018 [DVDrip, WEB-DLRip, HDrip] (DUB, MVO) [ 2.18 GB ] Хантер Киллер / Hunter Killer | Лицензия Blu-Ray RUS | BDRip bober100 Скачать
1 | 0

28-11-2019 20:33  


Отключить вcю реклaмy на сайте, в т.ч. и в плеере онлайн просмотра!

    Дорогой пользователь! Огромная просьба, поблагодарите релизера, оцените раздачу и оставьте свои комментарий, если Вы скачали Хантер Киллер через торрент бесплатно!!
    Комментировать посты могут только пользователи прошедшие не сложную регистрацию
    Показать сообщения:    


    Хантер Киллер через торрент
    Скачать бесплатно Хантер Киллер
    Хантер Киллер скачать торрент
    Хантер Киллер смотреть онлайн
    Cкачать фильм Хантер Киллер бесплатно
    Хантер Киллер скачать торрент в хорошем качестве
    Хантер Киллер смотреть онлайн бесплатно в хорошем качестве
    Вы не можете начинать темы
    Вы не можете отвечать на сообщения
    Вы не можете редактировать свои сообщения
    Вы не можете удалять свои сообщения
    Вы не можете голосовать в опросах
    Вы не можете прикреплять файлы к сообщениям
    Вы можете скачивать файлы
    Хантер Киллер / Hunter Killer [2018, боевик, триллер, UHD BDRemux 2160p] Дубляж [iTunes] [Dolby Vision TV] смотреть онлайн, скачать торрент picoco.icu