Достать ножи: Стеклянная луковица

MVO

Добыча

Дубляж

Уэнсдэй

1 сезон

Тор

Дубляж

13 клиническая

1 сезон

Жестокая ночь

MVO

Одни из нас

1 сезон

Deluxe

pack

Рекомендуем

30

Пиратка

ВАЖНО

ВАЖНО

Ghostwire

Пиратка

jed

RePack

nioh2

RePack

RDR2

RePack

NEED FOR SPEED™ PAYBACK

RePack

скачать торрент

Кинопоиск HD

Острые козырьки 6 сезон

6 сезон

FAR CRY 6

RePack

скачать торрент

Лицензия

скачать торрент

MVO

1

1 сезон

скачать торрент

1 сезон

скачать торрент

Лицензия

  

22 мили / Mile 22 (Питер Берг) [2018, боевик, триллер, криминал, UHD WEBRip 2160p] Дубляж [iTunes]

22 мили через торрент piratbit.org

Размер: 18.32 GB | Добавлен: 4 года назад | Торрент скачан:144 раза
Смотреть онлайн | Скачать | Поддержите нас   

25-01-2019 12:23 22 мили Скачать торрент  

22 мили / Mile 22«Призраки не играют по правилам»
Год выпуска: 2018
Страна: США
Жанр: боевик, триллер, криминал, приключения
Продолжительность: 01:34:40
Перевод: Дублированный | iTunes
Субтитры: Русские, английские
Режиссер: Питер Берг
В ролях:

Марк Уолберг (James Silva), Лорен Кохэн (Alice Kerr), Ико Уайс (Li Noor), Джон Малкович (Bishop), Ронда Раузи (Sam Snow), Карло Альбан (William Douglas III), Наталья Губская (Vera), Сиэль (Queen), Сэм Медина (Axel), Кит А. Болден (King), Дженик Хендрикс (Knight), Билли Смит (Rook)
Описание:
Призраки - элитный отряд сверхсекретной разведки: официально они не существуют, но на самом деле - реальны. Они решают задачи, когда старые методы уже не работают, и всегда добиваются поставленной цели. Суперагенту отряда при поддержке ЦРУ предстоит непростая миссия: тайно вывести из Индонезии полицейского, владеющего доказательствами коррупции в высших политических кругах. До спасительного самолета им предстоит преодолеть 22 смертельно опасные мили.
Рейтинг:

MPAA: R - Лицам до 17 лет обязательно присутствие взрослого
Качество: UHD WEBRip 2160p
Формат: MKV
Видео: HEVC HDR, 18.4 Мбит/с, 3840x1600, 23.976 кадр/с, 10 бит
Аудио №1: Russian / Dolby Digital Audio / 5.1 / 48 kHz / 384 kbps - Полное дублирование iTunes
Аудио №2: Russian / DTS-HD Master Audio / 7.1 / 48 kHz / 4767 kbps - Полное дублирование custom iTunes
Аудио №3: :f_56: English / Dolby TrueHD / 5.1 / 48 kHz / 3522 kbps - Оригинал
Аудио №4: :f_56: English / Dolby Digital Audio / 5.1 / 48 kHz / 640 kbps - Оригинал
Навигация по главам: есть

General
Unique ID : 62644064677455362822968963685889520552 (0x2F20CED9174502D48B133301A20AB3A8)
Complete name : X:\Releases\Mile.22.2018.WEBRip.HEVC.HDR.2160p.mkv
Format : Matroska
Format version : Version 4
File size : 18.3 GiB
Duration : 1 h 34 min
Overall bit rate mode : Variable
Overall bit rate : 27.8 Mb/s
Encoded date : UTC 2019-01-25 11:20:03
Writing application : mkvmerge v30.1.0 ('Forever And More') 64-bit
Writing library : libebml v1.3.6 + libmatroska v1.4.9
Attachments : poster.jpg

Video
ID : 1
Format : HEVC
Format/Info : High Efficiency Video Coding
Commercial name : HDR10
Format profile : Main 10@L5@Main
Codec ID : V_MPEGH/ISO/HEVC
Duration : 1 h 34 min
Bit rate : 18.4 Mb/s
Width : 3 840 pixels
Height : 1 600 pixels
Display aspect ratio : 2.40:1
Frame rate mode : Constant
Frame rate : 23.976 (24000/1001) FPS
Color space : YUV
Chroma subsampling : 4:2:0
Bit depth : 10 bits
Bits/(Pixel*Frame) : 0.125
Stream size : 12.1 GiB (66%)
Default : Yes
Forced : No
Color range : Limited
Color primaries : BT.2020
Transfer characteristics : PQ
Matrix coefficients : BT.2020 non-constant
Mastering display color pri : BT.2020
Mastering display luminance : min: 4.1250 cd/m2, max: 4000 cd/m2
Maximum Content Light Level : 2407 cd/m2
Maximum Frame-Average Light : 1095 cd/m2

Audio #1
ID : 2
Format : AC-3
Format/Info : Audio Coding 3
Commercial name : Dolby Digital
Codec ID : A_AC3
Duration : 1 h 34 min
Bit rate mode : Constant
Bit rate : 384 kb/s
Channel(s) : 6 channels
Channel layout : L R C LFE Ls Rs
Sampling rate : 48.0 kHz
Frame rate : 31.250 FPS (1536 SPF)
Bit depth : 16 bits
Compression mode : Lossy
Delay relative to video : 11 ms
Stream size : 259 MiB (1%)
Title : iTunes
Language : Russian
Service kind : Complete Main
Default : No
Forced : No

Audio #2
ID : 3
Format : DTS XLL
Format/Info : Digital Theater Systems
Commercial name : DTS-HD Master Audio
Codec ID : A_DTS
Duration : 1 h 34 min
Bit rate mode : Variable
Bit rate : 4 767 kb/s
Channel(s) : 8 channels
Channel layout : C L R LFE Lb Rb Lss Rss
Sampling rate : 48.0 kHz
Frame rate : 93.750 FPS (512 SPF)
Bit depth : 24 bits
Compression mode : Lossless
Stream size : 3.14 GiB (17%)
Title : Дубляж iTunes custom
Language : Russian
Default : Yes
Forced : No

Audio #3
ID : 4
Format : MLP FBA
Format/Info : Meridian Lossless Packing FBA
Commercial name : Dolby TrueHD
Codec ID : A_TRUEHD
Duration : 1 h 34 min
Bit rate mode : Variable
Bit rate : 3 522 kb/s
Maximum bit rate : 5 142 kb/s
Channel(s) : 6 channels
Channel layout : L R C LFE Ls Rs
Sampling rate : 48.0 kHz
Frame rate : 1 200.000 FPS (40 SPF)
Compression mode : Lossless
Delay relative to video : 1 ms
Stream size : 2.32 GiB (13%)
Language : English
Default : No
Forced : No

Audio #4
ID : 5
Format : AC-3
Format/Info : Audio Coding 3
Commercial name : Dolby Digital
Codec ID : A_AC3
Duration : 1 h 34 min
Bit rate mode : Constant
Bit rate : 640 kb/s
Channel(s) : 6 channels
Channel layout : L R C LFE Ls Rs
Sampling rate : 48.0 kHz
Frame rate : 31.250 FPS (1536 SPF)
Bit depth : 16 bits
Compression mode : Lossy
Delay relative to video : 11 ms
Stream size : 431 MiB (2%)
Language : English
Service kind : Complete Main
Default : No
Forced : No

Text #1
ID : 6
Format : UTF-8
Codec ID : S_TEXT/UTF8
Codec ID/Info : UTF-8 Plain Text
Duration : 1 h 5 min
Bit rate : 2 b/s
Count of elements : 33
Stream size : 1.34 KiB (0%)
Title : Forced
Language : Russian
Default : Yes
Forced : No

Text #2
ID : 7
Format : UTF-8
Codec ID : S_TEXT/UTF8
Codec ID/Info : UTF-8 Plain Text
Duration : 1 h 11 min
Bit rate : 1 b/s
Count of elements : 41
Stream size : 863 Bytes (0%)
Title : Forced
Language : English
Default : No
Forced : No

Text #3
ID : 8
Format : UTF-8
Codec ID : S_TEXT/UTF8
Codec ID/Info : UTF-8 Plain Text
Duration : 1 h 25 min
Bit rate : 69 b/s
Count of elements : 1403
Stream size : 43.3 KiB (0%)
Title : Full
Language : English
Default : No
Forced : No

Menu
00:00:00.000 : en:Chapter 1
00:12:06.225 : en:Chapter 2
00:24:27.925 : en:Chapter 3
00:36:23.139 : en:Chapter 4
00:48:42.211 : en:Chapter 5
01:04:11.264 : en:Chapter 6
01:17:49.665 : en:Chapter 7
01:27:14.604 : en:Chapter 8



Скачать 22 мили через торрент https://d.radikal.ru/d26/1901/b1/8008f135536c.png Скачать, смотреть онлайн 22 мили бесплантно в хорошем качестве Описание: Призраки - элитный отряд сверхсекретной разведки: официально они не существуют, но на самом деле - реальны. Они решают задачи, ... 8.6 10 10
Торрент: Зарегистрирован [2019-01-25 12:23] · скачан: 144 раз
Статус: √ проверено
Размер: 18.32 GB
Как cкачать? Как скачать 22 мили через торрент | UTorrent

% Раздел Тема Автор DL S | L
Фильмы (WEB-DL 720p, 1080p) [ 3.27 GB ] 22 мили / Mile 22 | iTunes | 1080p bober100 Скачать
3 | 0
Фильмы [HD 720p, 1080p] (Хороший звук DUB, MVO) [ 9.08 GB ] 22 мили / Mile 22 | Лицензия BD RUS | 1080p sheker187 Скачать
1 | 0
Фильмы 2018 [DVDrip, WEB-DLRip, HDrip] (DUB, MVO) [ 1.46 GB ] 22 мили / Mile 22 | Лицензия | BDRip Twi7ter Скачать
1 | 0
Фильмы [HD 720p, 1080p] (Хороший звук DUB, MVO) [ 5.48 GB ] 22 мили / Mile 22 | Лицензия | 720p bober100 Скачать
1 | 0
Фильмы (Blu-ray, BD-Remux, HDDVD) [ 25 GB ] 22 мили / Mile 22 | Лицензия | BD Remux 1080p bober100 Скачать
1 | 0
Фильмы [HD 720p, 1080p] (Хороший звук DUB, MVO) [ 8.78 GB ] 22 мили / Mile 22 | Лицензия | 1080p bober100 Скачать
2 | 0
Фильмы 2018 [DVDrip, WEB-DLRip, HDrip] (DUB, MVO) [ 1.57 GB ] 22 мили / Mile 22 | Лицензия | BDRip-AVC bober100 Скачать
1 | 0

28-11-2019 20:33  


Отключить вcю реклaмy на сайте, в т.ч. и в плеере онлайн просмотра!

02-03-2019 16:19 22 мили Скачать торрент  

Лицензионный звук с 4К хотелось бы, плиз



    Дорогой пользователь! Огромная просьба, поблагодарите релизера, оцените раздачу и оставьте свои комментарий, если Вы скачали 22 мили через торрент бесплатно!!
    Комментировать посты могут только пользователи прошедшие не сложную регистрацию
    Показать сообщения:    


    22 мили через торрент
    Скачать бесплатно 22 мили
    22 мили скачать торрент
    22 мили смотреть онлайн
    Cкачать фильм 22 мили бесплатно
    22 мили скачать торрент в хорошем качестве
    22 мили смотреть онлайн бесплатно в хорошем качестве
    Вы не можете начинать темы
    Вы не можете отвечать на сообщения
    Вы не можете редактировать свои сообщения
    Вы не можете удалять свои сообщения
    Вы не можете голосовать в опросах
    Вы не можете прикреплять файлы к сообщениям
    Вы можете скачивать файлы
    22 мили / Mile 22 [2018, боевик, триллер, криминал, UHD WEBRip 2160p] Дубляж [iTunes] смотреть онлайн, скачать торрент picoco.icu