Достать ножи: Стеклянная луковица

MVO

Добыча

Дубляж

Уэнсдэй

1 сезон

Тор

Дубляж

13 клиническая

1 сезон

Жестокая ночь

MVO

Одни из нас

1 сезон

Deluxe

pack

Рекомендуем

30

Пиратка

ВАЖНО

ВАЖНО

Ghostwire

Пиратка

jed

RePack

nioh2

RePack

RDR2

RePack

NEED FOR SPEED™ PAYBACK

RePack

скачать торрент

Кинопоиск HD

Острые козырьки 6 сезон

6 сезон

FAR CRY 6

RePack

скачать торрент

Лицензия

скачать торрент

MVO

1

1 сезон

скачать торрент

1 сезон

скачать торрент

Лицензия

  

Чёрный клановец / BlacKkKlansman (Спайк Ли) [2018, драма, криминал, биография, UHD BDRemux 2160p] Дубляж [Лицензия]

Чёрный клановец через торрент piratbit.org

Размер: 69.57 GB | Добавлен: 4 года назад | Торрент скачан:20 раз
Смотреть онлайн | Скачать | Поддержите нас   

25-01-2019 15:42 Чёрный клановец Скачать торрент  

Чёрный клановец / BlacKkKlansman«В сердце ненависти»
Год выпуска: 2018
Страна: США
Жанр: драма, криминал, биография
Продолжительность: 02:14:49
Перевод: Дублированный | Лицензия
Субтитры: Русские (Full, Forced), Английские (Full, SDH)
Режиссер: Спайк Ли
В ролях:

Джон Дэвид Вашингтон (Ron Stallworth), Адам Драйвер (Flip Zimmerman), Лора Хэрриер (Patrice Dumas), Тофер Грейс (David Duke), Яспер Пяякконен (Felix Kendrickson), Райан Эгголд (Walter Breachway), Роберт Джон Бёрк (Chief Bridges), Николас Туртурро (Walker), Кори Хоукинс (Kwame Ture), Алек Болдуин (Dr. Kennebrew Beauregard), Исайя Уитлок мл. (Mr. Turrentine), Брайан Тарантина (Officer Clay Mulaney)
Описание:
Внедриться в Ку-Клукс-Клан - задача не из легких, особенно если ты чернокожий. Но целеустремленного полицейского из Колорадо такие мелочи не смущают. Вместе с напарником-евреем он вступает в неравный бой с опаснейшими противниками.
Рейтинг:

MPAA: R - Лицам до 17 лет обязательно присутствие взрослого
Качество: UHD BDRemux 2160p
Формат: MKV
Видео: HEVC HDR, 68578 Кбит/с, 3840x2160, 23.976 Кадр/с
Аудио №1: AC3, 48 kHz, 6 ch, 640.00 kbps avg | русский | Лицензия |
Аудио №2: :f_56: TrueHD, 48 kHz, 6 ch, 3950.00.00 kbps avg | английский | Оригинал
Аудио №3: :f_56: AC3, 48 kHz, 6 ch, 640.00.00 kbps avg | английский | Оригинал
Навигация по главам: Есть

Каннский кинофестиваль, 2018 год
Победитель (2):
Гран-при жюри
Приз экуменического (христианского) жюри - особое упоминание
Номинации (1):
Золотая пальмовая ветвь

Сан-Себастьян, 2018 год
Номинации (1):
Приз зрительских симпатий за лучший фильм
Знаете ли вы, что...
По окончании премьерного показа фильма на Каннском кинофестивале режиссёр Спайк Ли удостоился шестиминутной овации.
На последнем кадре фильма изображен перевернутый вниз черно-белый американский флаг. В США это сигнал бедствия или чрезвычайной ситуации. Также он используется как знак протеста и означает политическое или гражданское бедствие.
Общее
Уникальный идентификатор : 176717438871359420052527655529166679250 (0x84F28A6CBE0D4F059AD6E64959902CD2)
Полное имя : D:\Передел_2\Новая папка (3)\BlacKkKlansman.2018.UHD.BDRemux.2160p.x265.10bit.Master5.mkv
Формат : Matroska
Версия формата : Version 4
Размер файла : 69,6 Гбайт
Продолжительность : 2 ч. 14 м.
Режим общего битрейта : Переменный
Общий поток : 73,9 Мбит/сек
Название фильма : BlacKkKlansman.2018.UHD.BDRemux.2160p.x265.10bit.Master5
Дата кодирования : UTC 2019-01-25 06:46:02
Программа кодирования : mkvmerge v7.9.0 ('Birds') 64bit
Библиотека кодирования : libebml v1.3.1 + libmatroska v1.4.2

Видео
Идентификатор : 1
Формат : HEVC
Формат/Информация : High Efficiency Video Coding
Коммерческое название : HDR10
Профиль формата : Main 10@L5.1@High
Идентификатор кодека : V_MPEGH/ISO/HEVC
Продолжительность : 2 ч. 14 м.
Битрейт : 68,6 Мбит/сек
Ширина : 3840 пикселей
Высота : 2160 пикселей
Соотношение сторон : 16:9
Режим частоты кадров : Постоянный
Частота кадров : 23,976 (24000/1001) кадра/сек
Цветовое пространство : YUV
Субдискретизация насыщенности : 4:2:0 (Type 2)
Битовая глубина : 10 бит
Бит/(Пиксели*Кадры) : 0.345
Размер потока : 64,6 Гбайт (93%)
Заголовок : BlacKkKlansman.2018.UHD.BDRemux.2160p.x265.10bit.Master5
Язык : English
Default : Да
Forced : Нет
Цветовой диапазон : Limited
Основные цвета : BT.2020
Характеристики трансфера : PQ
Коэффициенты матрицы : BT.2020 non-constant
MasteringDisplay_ColorPrimaries : Display P3
MasteringDisplay_Luminance : min: 0.0050 cd/m2, max: 1000 cd/m2
MaxCLL : 552 cd/m2
MaxFALL : 132 cd/m2

Аудио #1
Идентификатор : 2
Формат : AC-3
Формат/Информация : Audio Coding 3
Коммерческое название : Dolby Digital
Идентификатор кодека : A_AC3
Продолжительность : 2 ч. 14 м.
Вид битрейта : Постоянный
Битрейт : 640 Кбит/сек
Каналы : 6 каналов
Channel layout : L R C LFE Ls Rs
Частота : 48,0 КГц
Частота кадров : 31,250 кадров/сек (1536 SPF)
Битовая глубина : 16 бит
Метод сжатия : С потерями
Размер потока : 617 Мбайт (1%)
Заголовок : Дубляж Лицензия
Язык : Russian
ServiceKind/String : Complete Main
Default : Да
Forced : Да

Аудио #2
Идентификатор : 3
Формат : MLP FBA 16-ch
Формат/Информация : Meridian Lossless Packing FBA with 16-channel presentation
Коммерческое название : Dolby TrueHD with Dolby Atmos
Идентификатор кодека : A_TRUEHD
Продолжительность : 2 ч. 14 м.
Вид битрейта : Переменный
Битрейт : 3950 Кбит/сек
Максимальный битрейт : 6804 Кбит/сек
Каналы : 8 каналов
Channel layout : L R C LFE Ls Rs Lb Rb
Частота : 48,0 КГц
Частота кадров : 1200,000 кадров/сек (40 SPF)
Метод сжатия : Без потерь
Размер потока : 3,72 Гбайт (5%)
Заголовок : Original
Язык : English
Default : Нет
Forced : Нет
Number of dynamic objects : 11
Bed channel count : 1 канал
Bed channel configuration : LFE

Аудио #3
Идентификатор : 4
Формат : AC-3
Формат/Информация : Audio Coding 3
Коммерческое название : Dolby Digital
Идентификатор кодека : A_AC3
Продолжительность : 2 ч. 14 м.
Вид битрейта : Постоянный
Битрейт : 640 Кбит/сек
Каналы : 6 каналов
Channel layout : L R C LFE Ls Rs
Частота : 48,0 КГц
Частота кадров : 31,250 кадров/сек (1536 SPF)
Битовая глубина : 16 бит
Метод сжатия : С потерями
Размер потока : 617 Мбайт (1%)
Заголовок : Original
Язык : English
ServiceKind/String : Complete Main
Default : Нет
Forced : Нет

Текст #1
Идентификатор : 5
Формат : UTF-8
Идентификатор кодека : S_TEXT/UTF8
Идентификатор кодека/Информация : UTF-8 Plain Text
Продолжительность : 2 ч. 12 м.
Битрейт : 1 бит/сек
ElementCount : 18
Размер потока : 1,02 Кбайт (0%)
Заголовок : Forced
Язык : Russian
Default : Да
Forced : Нет

Текст #2
Идентификатор : 6
Формат : UTF-8
Идентификатор кодека : S_TEXT/UTF8
Идентификатор кодека/Информация : UTF-8 Plain Text
Продолжительность : 2 ч. 13 м.
Битрейт : 92 бит/сек
ElementCount : 2153
Размер потока : 90,3 Кбайт (0%)
Заголовок : Full
Язык : Russian
Default : Нет
Forced : Нет

Текст #3
Идентификатор : 7
Формат : UTF-8
Идентификатор кодека : S_TEXT/UTF8
Идентификатор кодека/Информация : UTF-8 Plain Text
Продолжительность : 2 ч. 12 м.
Битрейт : 85 бит/сек
ElementCount : 2810
Размер потока : 83,2 Кбайт (0%)
Заголовок : Full
Язык : English
Default : Нет
Forced : Нет

Текст #4
Идентификатор : 8
Формат : UTF-8
Идентификатор кодека : S_TEXT/UTF8
Идентификатор кодека/Информация : UTF-8 Plain Text
Продолжительность : 2 ч. 8 м.
Битрейт : 89 бит/сек
ElementCount : 2636
Размер потока : 84,6 Кбайт (0%)
Заголовок : SDH
Язык : English
Default : Нет
Forced : Нет

Меню
00:00:00.000 : en:Chapter 1
00:04:10.250 : en:Chapter 2
00:13:54.876 : en:Chapter 3
00:23:16.604 : en:Chapter 4
00:27:56.508 : en:Chapter 5
00:36:10.668 : en:Chapter 6
00:43:21.557 : en:Chapter 7
00:48:30.616 : en:Chapter 8
00:54:58.629 : en:Chapter 9
00:59:48.543 : en:Chapter 10
01:07:04.771 : en:Chapter 11
01:16:37.802 : en:Chapter 12
01:22:20.394 : en:Chapter 13
01:29:38.123 : en:Chapter 14
01:39:10.653 : en:Chapter 15
01:48:27.042 : en:Chapter 16
01:56:05.584 : en:Chapter 17
02:00:43.945 : en:Chapter 18
02:03:57.430 : en:Chapter 19
02:09:03.569 : en:Chapter 20



Скачать Чёрный клановец через торрент https://a.radikal.ru/a16/1812/9e/8f92a4b09672.jpg Скачать, смотреть онлайн Чёрный клановец бесплантно в хорошем качестве Описание: Внедриться в Ку-Клукс-Клан - задача не из легких, особенно если ты чернокожий. Но целеустремленного полицейского из Колорадо ... 10 10 3
Info! Золотая раздача, скачанное не засчитывается.
Торрент: Зарегистрирован [2019-01-25 15:42] · скачан: 20 раз
Статус: √ проверено
Размер: 69.57 GB
Как cкачать? Как скачать Чёрный клановец через торрент | UTorrent

% Раздел Тема Автор DL S | L
Ultra HD (UHD: 2K, 4K, 8K) [ 69.7 GB ] Чёрный клановец / BlacKkKlansman | Лицензия | 2160p sheker187 Скачать
1 | 0
Фильмы 2018 [DVDrip, WEB-DLRip, HDrip] (DUB, MVO) [ 2.19 GB ] Чёрный клановец / BlacKkKlansman | Лицензия | BDRip Twi7ter Скачать
1 | 0
Ultra HD (UHD: 2K, 4K, 8K) [ 72.1 GB ] Чёрный клановец / BlacKkKlansman | Лицензия | 2160p sheker187 Скачать
1 | 0
Ultra HD (UHD: 2K, 4K, 8K) [ 86.83 GB ] Чёрный клановец / BlacKkKlansman | Лицензия | 2160p sheker187 Скачать
1 | 0
Фильмы 2018 [DVDrip, WEB-DLRip, HDrip] (DUB, MVO) [ 2.11 GB ] Чёрный клановец / BlacKkKlansman | Лицензия | BDRip-AVC sheker187 Скачать
1 | 0
Фильмы (Blu-ray, BD-Remux, HDDVD) [ 35.01 GB ] Чёрный клановец / BlacKkKlansman | Лицензия | 1080p sheker187 Скачать
1 | 0
Фильмы [HD 720p, 1080p] (Хороший звук DUB, MVO) [ 12.67 GB ] Чёрный клановец / BlacKkKlansman | Лицензия | 1080p sheker187 Скачать
1 | 0

28-11-2019 20:33  


Отключить вcю реклaмy на сайте, в т.ч. и в плеере онлайн просмотра!

    Дорогой пользователь! Огромная просьба, поблагодарите релизера, оцените раздачу и оставьте свои комментарий, если Вы скачали Чёрный клановец через торрент бесплатно!!
    Комментировать посты могут только пользователи прошедшие не сложную регистрацию
    Показать сообщения:    


    Чёрный клановец через торрент
    Скачать бесплатно Чёрный клановец
    Чёрный клановец скачать торрент
    Чёрный клановец смотреть онлайн
    Cкачать фильм Чёрный клановец бесплатно
    Чёрный клановец скачать торрент в хорошем качестве
    Чёрный клановец смотреть онлайн бесплатно в хорошем качестве
    Вы не можете начинать темы
    Вы не можете отвечать на сообщения
    Вы не можете редактировать свои сообщения
    Вы не можете удалять свои сообщения
    Вы не можете голосовать в опросах
    Вы не можете прикреплять файлы к сообщениям
    Вы можете скачивать файлы
    Чёрный клановец / BlacKkKlansman [2018, драма, криминал, биография, UHD BDRemux 2160p] Дубляж [Лицензия] смотреть онлайн, скачать торрент picoco.icu