Достать ножи: Стеклянная луковица

MVO

Добыча

Дубляж

Уэнсдэй

1 сезон

Тор

Дубляж

13 клиническая

1 сезон

Жестокая ночь

MVO

Одни из нас

1 сезон

Deluxe

pack

Рекомендуем

30

Пиратка

ВАЖНО

ВАЖНО

Ghostwire

Пиратка

jed

RePack

nioh2

RePack

RDR2

RePack

NEED FOR SPEED™ PAYBACK

RePack

скачать торрент

Кинопоиск HD

Острые козырьки 6 сезон

6 сезон

FAR CRY 6

RePack

скачать торрент

Лицензия

скачать торрент

MVO

1

1 сезон

скачать торрент

1 сезон

скачать торрент

Лицензия

  

Хэллфест / Hell Fest (Грегори Плоткин) [2018, Ужасы, UHD BDRemux 2160p] Дубляж [iTunes]

Хэллфест через торрент piratbit.org

Размер: 43.67 GB | Добавлен: 4 года назад | Торрент скачан:36 раз
Смотреть онлайн | Скачать | Поддержите нас   

26-01-2019 21:02 Хэллфест Скачать торрент  

Хэллфест / Hell Fest Год выпуска: 2018
Страна: США
Жанр: Ужасы
Продолжительность: 01:28:48
Перевод: Дублированный | iTunes
Субтитры: Английские

Режиссер: Грегори Плоткин

rating

В ролях:

Эми Форсайт, Рейн Эдвардс, Бекс Тейлор-Клаус, Кристиан Балис, Мэтт Меркьюрио, Тони Тодд, Микаэль Турек, Кортни Дитц, Эль Грэхэм, Алисия Росато

Описание:

Три подруги встречаются накануне Хэллоуина и вместе со своими парнями решают отметить праздник походом на Хэллфест, популярный фестиваль, главная цель организаторов и участников которого - напугать друг друга до полусмерти. Но для серийного убийцы в маске Хэллфест - это не просто карнавал ужасов, а площадка для смертельных игр. Он кромсает и душит у всех на виду, а возбужденная толпа и не подозревает, что вокруг множатся трупы. И, когда внимание маньяка переключается на Натали, Брук и Тейлор, девушки быстро понимают, что помощи ждать не от кого. Им предстоит бороться изо всех сил, чтобы пережить эту ночь.

Качество: UHD BDRemux 2160p
Формат: MKV

Видео: HEVC HDR, 63.3 Мбит/с, 3840x2160
Аудио#1: AC-3, 48.0 kHz, 6 ch, 384 kb/s, CBR (Russian)
Аудио#2: DTS X / MA / Core, / 48.0 kHz / 48.0 kHz, Object Based / 8 / 6 ch, 6 331 kb/s / 6 331 kb/s / 1 509 kb/s, VBR / VBR / CBR (English)
Аудио#3: AC-3, 48.0 kHz, 2 ch, 192 kb/s, CBR (English)
Аудио#4: AC-3, 48.0 kHz, 2 ch, 192 kb/s, CBR (English)
скриншот  скриншот  скриншот  скриншот  скриншот  

Общее
Уникальный идентификатор : 201805468902107740277820725326972230652 (0x97D251CE06D4753B4EBD65DC850C9BFC)
Полное имя : Hell.Fest.2018.UHD.BDRemux.2160p.HEVC.HDR.IVA(RUS.ENG).ExKinoRay.mkv
Формат : Matroska
Версия формата : Version 4
Размер файла : 43,7 Гбайт
Продолжительность : 1 ч. 28 м.
Режим общего битрейта : Переменный
Общий поток : 70,4 Мбит/сек
Название фильма : Хэллфест / Hell Fest ( 2018 ) UHD BDRemux | HDR, 4K | IVA(RUS.ENG) | ExKinoRay
Дата кодирования : UTC 2019-01-26 15:49:16
Программа кодирования : mkvmerge v30.1.0 ('Forever And More') 64-bit
Библиотека кодирования : libebml v1.3.6 + libmatroska v1.4.9
Обложка : Yes
Attachments : cover

Видео
Идентификатор : 1
Формат : HEVC
Формат/Информация : High Efficiency Video Coding
Коммерческое название : HDR10
Профиль формата : Main 10@L5.1@High
Идентификатор кодека : V_MPEGH/ISO/HEVC
Продолжительность : 1 ч. 28 м.
Битрейт : 63,3 Мбит/сек
Ширина : 3840 пикселей
Высота : 2160 пикселей
Соотношение сторон : 16:9
Режим частоты кадров : Постоянный
Частота кадров : 23,976 (24000/1001) кадра/сек
Цветовое пространство : YUV
Субдискретизация насыщенности : 4:2:0 (Type 2)
Битовая глубина : 10 бит
Бит/(Пиксели*Кадры) : 0.318
Размер потока : 39,3 Гбайт (90%)
Язык : English
Default : Да
Forced : Нет
Цветовой диапазон : Limited
Основные цвета : BT.2020
Характеристики трансфера : PQ
Коэффициенты матрицы : BT.2020 non-constant
MasteringDisplay_ColorPrimaries : Display P3
MasteringDisplay_Luminance : min: 0.0001 cd/m2, max: 1000 cd/m2
MaxCLL : 1000 cd/m2
MaxFALL : 830 cd/m2

Аудио #1
Идентификатор : 2
Формат : AC-3
Формат/Информация : Audio Coding 3
Коммерческое название : Dolby Digital
Идентификатор кодека : A_AC3
Продолжительность : 1 ч. 28 м.
Вид битрейта : Постоянный
Битрейт : 384 Кбит/сек
Каналы : 6 каналов
Channel layout : L R C LFE Ls Rs
Частота : 48,0 КГц
Частота кадров : 31,250 кадров/сек (1536 SPF)
Битовая глубина : 16 бит
Метод сжатия : С потерями
Размер потока : 244 Мбайт (1%)
Заголовок : Дублированный
Язык : Russian
ServiceKind : Complete Main
Default : Да
Forced : Нет

Аудио #2
Идентификатор : 3
Формат : DTS XLL X
Формат/Информация : Digital Theater Systems
Коммерческое название : DTS-HD Master Audio
Идентификатор кодека : A_DTS
Продолжительность : 1 ч. 28 м.
Вид битрейта : Переменный
Битрейт : 6331 Кбит/сек
Каналы : 8 каналов
Channel(s)_Original : Object Based
Channel layout : Object Based
Частота : 48,0 КГц
Частота кадров : 93,750 кадра/сек (512 SPF)
Битовая глубина : 24 бит
Размер потока : 3,93 Гбайт (9%)
Заголовок : Original
Язык : English
Default : Нет
Forced : Нет

Аудио #3
Идентификатор : 4
Формат : AC-3
Формат/Информация : Audio Coding 3
Коммерческое название : Dolby Digital
Идентификатор кодека : A_AC3
Продолжительность : 1 ч. 28 м.
Вид битрейта : Постоянный
Битрейт : 192 Кбит/сек
Каналы : 2 канала
Channel layout : L R
Частота : 48,0 КГц
Частота кадров : 31,250 кадров/сек (1536 SPF)
Битовая глубина : 16 бит
Метод сжатия : С потерями
Размер потока : 122 Мбайт (0%)
Заголовок : Original
Язык : English
ServiceKind : Complete Main
Default : Нет
Forced : Нет

Аудио #4
Идентификатор : 5
Формат : AC-3
Формат/Информация : Audio Coding 3
Коммерческое название : Dolby Digital
Идентификатор кодека : A_AC3
Продолжительность : 1 ч. 28 м.
Вид битрейта : Постоянный
Битрейт : 192 Кбит/сек
Каналы : 2 канала
Channel layout : L R
Частота : 48,0 КГц
Частота кадров : 31,250 кадров/сек (1536 SPF)
Битовая глубина : 16 бит
Метод сжатия : С потерями
Размер потока : 122 Мбайт (0%)
Заголовок : Audiodeion
Язык : English
ServiceKind : Complete Main
Default : Нет
Forced : Нет

Текст #1
Идентификатор : 6
Формат : UTF-8
Идентификатор кодека : S_TEXT/UTF8
Идентификатор кодека/Информация : UTF-8 Plain Text
Продолжительность : 1 ч. 23 м.
Битрейт : 58 бит/сек
ElementCount : 1136
Размер потока : 35,5 Кбайт (0%)
Заголовок : Full
Язык : English
Default : Нет
Forced : Нет

Текст #2
Идентификатор : 7
Формат : UTF-8
Идентификатор кодека : S_TEXT/UTF8
Идентификатор кодека/Информация : UTF-8 Plain Text
Продолжительность : 1 ч. 23 м.
Битрейт : 73 бит/сек
ElementCount : 1479
Размер потока : 44,8 Кбайт (0%)
Заголовок : SDH
Язык : English
Default : Нет
Forced : Нет

Меню
00:00:00.000 : :Chapter 01
00:04:28.977 : :Chapter 02
00:12:09.979 : :Chapter 03
00:15:44.026 : :Chapter 04
00:22:44.029 : :Chapter 05
00:28:22.242 : :Chapter 06
00:35:17.365 : :Chapter 07
00:40:37.226 : :Chapter 08
00:43:37.781 : :Chapter 09
00:49:16.620 : :Chapter 10
00:53:22.407 : :Chapter 11
01:00:07.770 : :Chapter 12
01:06:43.582 : :Chapter 13
01:11:33.455 : :Chapter 14
01:16:33.589 : :Chapter 15
01:21:53.325 : :Chapter 16




Скачать Хэллфест через торрент https://i110.fastpic.ru/big/2019/0125/51/9193629691dcb09e9e4546f170eca251.jpg Скачать, смотреть онлайн Хэллфест бесплантно в хорошем качестве Описание: Три подруги встречаются накануне Хэллоуина и вместе со своими парнями решают отметить праздник походом на Хэллфест, популярный ... 10 10 2
Торрент: Зарегистрирован [2019-01-26 21:02] · скачан: 36 раз
Статус: √ проверено
Размер: 43.67 GB
Как cкачать? Как скачать Хэллфест через торрент | UTorrent

% Раздел Тема Автор DL S | L
Фильмы 2018 [DVDrip, WEB-DLRip, HDrip] (DUB, MVO) [ 1.42 GB ] Хэллфест / Hell Fest | Лицензия | BDRip Twi7ter Скачать
1 | 0
Фильмы (Blu-ray, BD-Remux, HDDVD) [ 24.94 GB ] Хэллфест / Hell Fest | iTunes | BD Remux 1080p bober100 Скачать
1 | 0
Ultra HD (UHD: 2K, 4K, 8K) [ 11.8 GB ] Хэллфест / Hell Fest | iTunes | 2160p bober100 Скачать
1 | 0
Ultra HD (UHD: 2K, 4K, 8K) [ 44.23 GB ] Хэллфест / Hell Fest | iTunes | 2160p sheker187 Скачать
1 | 0
Ultra HD (UHD: 2K, 4K, 8K) [ 55.95 GB ] Хэллфест / Hell Fest | iTunes | 2160p bober100 Скачать
1 | 0
Фильмы 2018 [DVDrip, WEB-DLRip, HDrip] (DUB, MVO) [ 1.91 GB ] Хэллфест / Hell Fest | iTunes | BDRip-AVC bober100 Скачать
1 | 0
Фильмы 2018 [DVDrip, WEB-DLRip, HDrip] (DUB, MVO) [ 745 MB ] Хэллфест / Hell Fest | iTunes | BDRip bober100 Скачать
1 | 0

28-11-2019 20:33  


Отключить вcю реклaмy на сайте, в т.ч. и в плеере онлайн просмотра!

    Дорогой пользователь! Огромная просьба, поблагодарите релизера, оцените раздачу и оставьте свои комментарий, если Вы скачали Хэллфест через торрент бесплатно!!
    Комментировать посты могут только пользователи прошедшие не сложную регистрацию
    Показать сообщения:    


    Хэллфест через торрент
    Скачать бесплатно Хэллфест
    Хэллфест скачать торрент
    Хэллфест смотреть онлайн
    Cкачать фильм Хэллфест бесплатно
    Хэллфест скачать торрент в хорошем качестве
    Хэллфест смотреть онлайн бесплатно в хорошем качестве
    Вы не можете начинать темы
    Вы не можете отвечать на сообщения
    Вы не можете редактировать свои сообщения
    Вы не можете удалять свои сообщения
    Вы не можете голосовать в опросах
    Вы не можете прикреплять файлы к сообщениям
    Вы можете скачивать файлы
    Хэллфест / Hell Fest [2018, Ужасы, UHD BDRemux 2160p] Дубляж [iTunes] смотреть онлайн, скачать торрент picoco.icu