Достать ножи: Стеклянная луковица

MVO

Добыча

Дубляж

Уэнсдэй

1 сезон

Тор

Дубляж

13 клиническая

1 сезон

Жестокая ночь

MVO

Одни из нас

1 сезон

Deluxe

pack

Рекомендуем

30

Пиратка

ВАЖНО

ВАЖНО

Ghostwire

Пиратка

jed

RePack

nioh2

RePack

RDR2

RePack

NEED FOR SPEED™ PAYBACK

RePack

скачать торрент

Кинопоиск HD

Острые козырьки 6 сезон

6 сезон

FAR CRY 6

RePack

скачать торрент

Лицензия

скачать торрент

MVO

1

1 сезон

скачать торрент

1 сезон

скачать торрент

Лицензия

  

Джек Ричер / Jack Reacher (Кристофер МакКуорри) [2012, боевик, триллер, детектив, UHD BDRemux 2160p] Дубляж [Dolby Vision TV]

Джек Ричер через торрент piratbit.org

Размер: 46.13 GB | Добавлен: 4 года назад | Торрент скачан:30 раз
Смотреть онлайн | Скачать | Поддержите нас   

27-01-2019 12:29 Джек Ричер Скачать торрент  

Джек Ричер / Jack Reacher«У закона есть пределы. У него их нет»
Год выпуска: 2012
Страна: США
Жанр: боевик, триллер, детектив, криминал
Продолжительность: 02:10:24
Перевод: Дублированный
Режиссер: Кристофер МакКуорри
В ролях:

Том Круз (Reacher), Розамунд Пайк (Helen), Джай Кортни (Charlie), Дэвид Ойелоуо (Emerson), Ричард Дженкинс (Rodin), Роберт Дювалл (Cash), Вернер Херцог (The Zec), Джозеф Сикора (Barr), Майкл Рэймонд-Джеймс (Linsky), Алексия Фаст (Sandy), Владимир Сизов (Vlad), Джош Хелман (Jeb)
Описание:
Снайпер убивает нескольких случайных прохожих. Его находят и арестовывают. Все улики указывают на него. На допросе вместо признания он пишет имя - Джек Ричер. Больше обвиняемый не может ничего сказать, поскольку после избиения заключёнными впадает в кому. Загадочный Джек Ричер появляется незамедлительно. Что теперь будет с убийцей?
Рейтинг:

MPAA: PG-13 - Детям до 13 лет просмотр не желателен
Качество: UHD BDRemux 2160p | Dolby Vision TV
Контейнер: MP4
Видео: HEVC, HDR, 44.9 Mбит/с, 3840x2160, 23.976 fps
Аудио: AC3 Dolby Digital 5.1 / 48 kHz / 640 kbps / 16-bit | Дубляж
Данный вид релизов (контейнер MP4) предназначен для встроенного в ТВ (соответственно, с поддержкой DV) плеер.
Т.Е. Можно использовать как USB flash/HDD, так и DLNA / Plex - подобные сервисы/программы. дополнительный-внешний плеер не обязателен.

Внимание!
На моделях LG 2016 возможны сюрпризы "через раз", 2017-2018 должно идти без сюрпризов )
Общее
Полное имя : Jack.Reacher.2012.UHD.BDRemux.2160p.DV.IVA.RUS.ExKinoRay.mp4
Формат : MPEG-4
Профиль формата : Base Media / Version 2
Идентификатор кодека : mp42 (mp42/iso6/isom/msdh/dby1)
Размер файла : 46,1 Гбайт
Продолжительность : 2 ч. 10 м.
Общий поток : 50,6 Мбит/сек
Дата кодирования : UTC 2019-01-26 12:28:29
Дата пометки : UTC 2019-01-26 12:28:29

Видео #1
Идентификатор : 1
Формат : HEVC
Формат/Информация : High Efficiency Video Coding
Коммерческое название : HDR10
Профиль формата : Main 10@L5.1@High
Идентификатор кодека : hev1
Идентификатор кодека/Информация : High Efficiency Video Coding
Продолжительность : 2 ч. 10 м.
Битрейт : 44,9 Мбит/сек
Ширина : 3840 пикселей
Высота : 2160 пикселей
Соотношение сторон : 16:9
Режим частоты кадров : Постоянный
Частота кадров : 23,976 (24000/1001) кадра/сек
Цветовое пространство : YUV
Субдискретизация насыщенности : 4:2:0 (Type 2)
Битовая глубина : 10 бит
Бит/(Пиксели*Кадры) : 0.226
Размер потока : 40,9 Гбайт (89%)
Default : Нет
Дата кодирования : UTC 2019-01-26 12:28:29
Дата пометки : UTC 2019-01-26 12:28:29
Цветовой диапазон : Limited
Основные цвета : BT.2020
Характеристики трансфера : PQ
Коэффициенты матрицы : BT.2020 non-constant
MasteringDisplay_ColorPrimaries : Display P3
MasteringDisplay_Luminance : min: 0.0001 cd/m2, max: 1000 cd/m2
Codec configuration box : hvcC

Видео #2
Идентификатор : 2
Формат : HEVC
Формат/Информация : High Efficiency Video Coding
Коммерческое название : HDR10
Профиль формата : Main 10@L5.1@High
Dolby Vision : 1.0, dvhe.07.06, EL+RPU
Идентификатор кодека : dvhe
Идентификатор кодека/Информация : High Efficiency Video Coding with Dolby Vision
Продолжительность : 2 ч. 10 м.
Битрейт : 5060 Кбит/сек
Ширина : 1920 пикселей
Высота : 1080 пикселей
Соотношение сторон : 16:9
Режим частоты кадров : Постоянный
Частота кадров : 23,976 (24000/1001) кадра/сек
Цветовое пространство : YUV
Субдискретизация насыщенности : 4:2:0 (Type 2)
Битовая глубина : 10 бит
Бит/(Пиксели*Кадры) : 0.102
Размер потока : 4,61 Гбайт (10%)
Default : Нет
Дата кодирования : UTC 2019-01-26 12:28:29
Дата пометки : UTC 2019-01-26 12:28:29
Цветовой диапазон : Limited
Основные цвета : BT.2020
Характеристики трансфера : PQ
Коэффициенты матрицы : BT.2020 non-constant
MasteringDisplay_ColorPrimaries : Display P3
MasteringDisplay_Luminance : min: 0.0001 cd/m2, max: 1000 cd/m2
Codec configuration box : hvcC+dvcC

Аудио
Идентификатор : 3
Формат : AC-3
Формат/Информация : Audio Coding 3
Коммерческое название : Dolby Digital
Идентификатор кодека : ac-3
Продолжительность : 2 ч. 10 м.
Вид битрейта : Постоянный
Битрейт : 640 Кбит/сек
Каналы : 6 каналов
Channel layout : L R C LFE Ls Rs
Частота : 48,0 КГц
Частота кадров : 31,250 кадров/сек (1536 SPF)
Битовая глубина : 16 бит
Метод сжатия : С потерями
Размер потока : 597 Мбайт (1%)
Язык : Russian
ServiceKind/String : Complete Main
Default : Нет
Дата кодирования : UTC 2019-01-26 12:28:29
Дата пометки : UTC 2019-01-26 12:28:29



Скачать Джек Ричер через торрент https://b.radikal.ru/b11/1807/e0/525d346fa86a.png Скачать, смотреть онлайн Джек Ричер бесплантно в хорошем качестве Описание: Снайпер убивает нескольких случайных прохожих. Его находят и арестовывают. Все улики указывают на него. На допросе вместо ... 10 10 5
Info! Золотая раздача, скачанное не засчитывается.
Торрент: Зарегистрирован [2019-01-27 12:29] · скачан: 30 раз
Статус: √ проверено
Размер: 46.13 GB
Как cкачать? Как скачать Джек Ричер через торрент | UTorrent

% Раздел Тема Автор DL S | L
Фильмы (HD 720p, 1080p) (48-60 fps) [ 4.69 GB ] Джек Ричер / Jack Reacher | Дубляж BD CEE | 720p / 60 FPS BD CEE slaventi-69 Скачать
1 | 1
R.G. Resident & PiratVoice - Фильмы, Видео [ 4.36 GB ] Джек Ричер: Дилогия / Jack Reacher: Dilogy | Лицензия | BDRip, Дубляж ruslanishe Скачать
1 | 0
Ultra HD (UHD: 2K, 4K, 8K) [ 77.29 GB ] Джек Ричер / Jack Reacher | DUB + 5xAVO | 2160p sheker187 Скачать
1 | 0
Ultra HD (UHD: 2K, 4K, 8K) [ 35.61 GB ] Джек Ричер / Jack Reacher | DUB | 2160p sheker187 Скачать
2 | 0
Ultra HD (UHD: 2K, 4K, 8K) [ 67.68 GB ] Джек Ричер / Jack Reacher | DUB + 5xAVO | 2160p sheker187 Скачать
1 | 0
Фильмы [HD 720p, 1080p] (Хороший звук DUB, MVO) [ 6.17 GB ] Джек Ричер / Jack Reacher | Дубляж | 720p, Дубляж, лицензия Ke$h@ Скачать
7 | 0
Фильмы [HD 720p, 1080p] (Хороший звук DUB, MVO) [ 17.99 GB ] Джек Ричер / Jack Reacher | Дубляж + Оригинал | 1080p, Дубляж + Оригинал Trava-HD Скачать
1 | 1

28-11-2019 20:33  


Отключить вcю реклaмy на сайте, в т.ч. и в плеере онлайн просмотра!

    Дорогой пользователь! Огромная просьба, поблагодарите релизера, оцените раздачу и оставьте свои комментарий, если Вы скачали Джек Ричер через торрент бесплатно!!
    Комментировать посты могут только пользователи прошедшие не сложную регистрацию
    Показать сообщения:    


    Джек Ричер через торрент
    Скачать бесплатно Джек Ричер
    Джек Ричер скачать торрент
    Джек Ричер смотреть онлайн
    Cкачать фильм Джек Ричер бесплатно
    Джек Ричер скачать торрент в хорошем качестве
    Джек Ричер смотреть онлайн бесплатно в хорошем качестве
    Вы не можете начинать темы
    Вы не можете отвечать на сообщения
    Вы не можете редактировать свои сообщения
    Вы не можете удалять свои сообщения
    Вы не можете голосовать в опросах
    Вы не можете прикреплять файлы к сообщениям
    Вы можете скачивать файлы
    Джек Ричер / Jack Reacher [2012, боевик, триллер, детектив, UHD BDRemux 2160p] Дубляж [Dolby Vision TV] смотреть онлайн, скачать торрент picoco.icu