2 сезон

iTunes

WEBRip

1

2 сезон

iTunes

1 сезон

1 сезон

RePack

30

Новинка

ВАЖНО

ИГРА 18+

pack

RePack

MK11
pack

Легкие деньги

RePack

jed

RePack

fifa19

RePack

RDR2

RePack

NEED FOR SPEED™ PAYBACK

4 сезон

9 сезон

Бесстыжие 9 сезон

Все сериалы

все сериалы на PB.wtf

RePack

FAR CRY 5

Anonymous, добрый вечер, мы не успеваем собрать деньги на оплату серверов за февраль, помогите нам пожалуйста в это трудное время. В качестве благодарности мы отключим Вам всю рекламу на сайте (укажите свой ник в строку Ваше имя)!

×
  
Magnet ссылка

Щелкунчик и четыре королевства / The Nutcracker and the Four Realms (Лассе Халльстрём, Джо Джонстон) [2018, фэнтези, приключения, семейный, BDRip 720p] [Ukr DUB] piratbit.org

Щелкунчик и четыре королевства через торрент piratbit.org

Размер: 3.97 GB | Добавлен: 2 года 1 мес. назад | Торрент скачан:43 раза
Скачать  

27-01-2019 18:43 Щелкунчик и четыре королевства Скачать торрент  

Щелкунчик и четыре королевства / The Nutcracker and the Four Realms
Год выпуска: 2018
Страна: США
Жанр: фэнтези, приключения, семейный
Продолжительность: 01:39:16
Перевод : Украинский (дублированный)
Субтитры: english

Режиссер: Лассе Халльстрём, Джо Джонстон

В ролях: Маккензи Фой, Том Свит, Мира Сайал, Элли Бамбер, Мэттью Макфэдиен, Ник Мохаммед, Чарльз Стритер, Морган Фриман, Джейден Фовора-Рыцарь, Принц

Описание: Получив необычный подарок на Рождество, юная Клара отправляется в захватывающее путешествие по загадочным местам: Стране Снегов, Стране Цветов и Стране Сладостей. Но девушке нужно попасть и в четвертое королевство, где ей придется столкнуться с целой армией мышей во главе с невероятно опасным Мышиным Королем.

rating
скриншот  

Качество : BDRip 1080p
Формат видео : MKV
Видео : 1280x692, 23.976 fps, ~4966 kbps avg
Звук 1 : 48 kHz, AC3 Dolby Digital, 2 ch, ~192 kbps - Ukr DUB
Звук 2 : 48 kHz, AC3 Dolby Digital, 6 ch, ~448 kbps - Eng
General
Unique ID : 290837443090446918875678384171093693249 (0xDACD410A0E50356893765DFF75D59341)
Complete name : F:\The Nutcracker and the Four Realms (2018) BDRip 720p [UKR_ENG] [Hurtom].mkv
Format : Matroska
Format version : Version 4 / Version 2
File size : 3.97 GiB
Duration : 1 h 39 min
Overall bit rate : 5 720 kb/s
Encoded date : UTC 2019-01-26 18:43:57
Writing application : mkvmerge v30.0.0 ('Interstellar') 64-bit
Writing library : libebml v1.3.6 + libmatroska v1.4.9
Cover : Yes
Attachments : cover

Video
ID : 1
Format : AVC
Format/Info : Advanced Video Codec
Format profile : High@L4.1
Format settings : CABAC / 9 Ref Frames
Format settings, CABAC : Yes
Format settings, RefFrames : 9 frames
Codec ID : V_MPEG4/ISO/AVC
Duration : 1 h 39 min
Bit rate : 4 966 kb/s
Width : 1 280 pixels
Height : 692 pixels
Display aspect ratio : 1.85:1
Frame rate mode : Constant
Frame rate : 23.976 (24000/1001) FPS
Color space : YUV
Chroma subsampling : 4:2:0
Bit depth : 8 bits
Scan type : Progressive
Bits/(Pixel*Frame) : 0.234
Stream size : 3.44 GiB (87%)
Writing library : x264 core 142 r2431 ac76440
Encoding settings : cabac=1 / ref=9 / deblock=1:-1:-1 / analyse=0x3:0x113 / me=umh / subme=11 / psy=1 / psy_rd=1.00:0.15 / mixed_ref=1 / me_range=48 / chroma_me=1 / trellis=2 / 8x8dct=1 / cqm=0 / deadzone=21,11 / fast_pskip=0 / chroma_qp_offset=-5 / threads=12 / lookahead_threads=2 / sliced_threads=0 / nr=0 / decimate=1 / interlaced=0 / bluray_compat=0 / constrained_intra=0 / bframes=8 / b_pyramid=2 / b_adapt=2 / b_bias=0 / direct=1 / weightb=1 / open_gop=0 / weightp=2 / keyint=240 / keyint_min=23 / scenecut=40 / intra_refresh=0 / rc_lookahead=60 / rc=crf / mbtree=1 / crf=18.0 / qcomp=0.60 / qpmin=10 / qpmax=69 / qpstep=4 / vbv_maxrate=50000 / vbv_bufsize=62500 / crf_max=0.0 / nal_hrd=none / filler=0 / ip_ratio=1.40 / aq=1:1.00
Language : English
Default : Yes
Forced : No

Audio #1
ID : 2
Format : AC-3
Format/Info : Audio Coding 3
Format settings, Endianness : Big
Codec ID : A_AC3
Duration : 1 h 39 min
Bit rate mode : Constant
Bit rate : 192 kb/s
Channel(s) : 2 channels
Channel positions : Front: L R
Sampling rate : 48.0 kHz
Frame rate : 31.250 FPS (1536 SPF)
Bit depth : 16 bits
Compression mode : Lossy
Stream size : 136 MiB (3%)
Title : AC3 2.0 @ 192 kbps
Language : Ukrainian
Service kind : Complete Main
Default : Yes
Forced : Yes

Audio #2
ID : 3
Format : AC-3
Format/Info : Audio Coding 3
Format settings, Endianness : Big
Codec ID : A_AC3
Duration : 1 h 39 min
Bit rate mode : Constant
Bit rate : 448 kb/s
Channel(s) : 6 channels
Channel positions : Front: L C R, Side: L R, LFE
Sampling rate : 48.0 kHz
Frame rate : 31.250 FPS (1536 SPF)
Bit depth : 16 bits
Compression mode : Lossy
Stream size : 318 MiB (8%)
Title : AC3 5.1 @ 448 kbps
Language : English
Service kind : Complete Main
Default : No
Forced : No

Text #1
ID : 4
Format : UTF-8
Codec ID : S_TEXT/UTF8
Codec ID/Info : UTF-8 Plain Text
Title : Full
Language : English
Default : No
Forced : No

Text #2
ID : 5
Format : UTF-8
Codec ID : S_TEXT/UTF8
Codec ID/Info : UTF-8 Plain Text
Title : SDH
Language : English
Default : No
Forced : No

Menu
00:00:00.000 : :Chapter 1
00:08:39.101 : :Chapter 2
00:16:47.256 : :Chapter 3
00:25:37.744 : :Chapter 4
00:34:20.892 : :Chapter 5
00:43:28.397 : :Chapter 6
00:48:31.992 : :Chapter 7
00:56:07.655 : :Chapter 8
00:59:09.546 : :Chapter 9
01:04:57.310 : :Chapter 10
01:11:49.722 : :Chapter 11
01:18:10.519 : :Chapter 12
01:22:04.002 : :Chapter 13
01:30:06.275 : :Chapter 14
скриншот  скриншот  скриншот  
piratbit.org



Скачать Щелкунчик и четыре королевства через торрент https://i110.fastpic.ru/big/2019/0127/1e/f9f6e2512be7c2856fce0d035cb8e01e.jpg Скачать фильм Щелкунчик и четыре королевства через торрент бесплантно в хорошем качестве Описание: Получив необычный подарок на Рождество, юная Клара отправляется в захватывающее путешествие по загадочным местам: Стране Снегов, ... 9.3 10 3
Торрент: Зарегистрирован [2019-01-27 18:43] · скачан: 43 раз
Статус: T временная
Размер: 3.97 GB
Как cкачать? Как скачать Щелкунчик и четыре королевства через торрент | UTorrent

% Раздел Тема Автор DL S | L
Фильмы 2018 [DVDrip, WEB-DLRip, HDrip] (DUB, MVO) [ 1.46 GB ] Щелкунчик и четыре королевства / The Nutcracker and the Four Realms [2018 BDRip] - [] Twi7ter Скачать
3 | 0
Ultra HD (UHD: 2K, 4K, 8K) — видео сверхвысокой чёткости [ 16.63 GB ] Щелкунчик и четыре королевства / The Nutcracker and the Four Realms [2018 UHD BDRip 2160p] DUB [ BD RUS] bober100 Скачать
2 | 0
Фильмы 2018 [DVDrip, WEB-DLRip, HDrip] (DUB, MVO) [ 2.14 GB ] Щелкунчик и четыре королевства / The Nutcracker and the Four Realms [2018 BDRip-AVC] DUB [] sheker187 Скачать
1 | 0
Фильмы [HD 720p, 1080p] (Хороший звук DUB, MVO) [ 7.72 GB ] Щелкунчик и четыре королевства / The Nutcracker and the Four Realms [2018 BDRip 1080p] DUB [] sheker187 Скачать
4 | 0
Фильмы (Blu-ray, BD-Remux, HDDVD) [ 26.02 GB ] Щелкунчик и четыре королевства / The Nutcracker and the Four Realms [2018 BDRemux 1080p] DUB [] sheker187 Скачать
1 | 0
Фильмы 2018 [DVDrip, WEB-DLRip, HDrip] (DUB, MVO) [ 1.46 GB ] Щелкунчик и четыре королевства / The Nutcracker and the Four Realms [2018 BDRip ] oleg8 Скачать
3 | 0
Фильмы 2018 [DVDrip, WEB-DLRip, HDrip] (DUB, MVO) [ 745 MB ] Щелкунчик и четыре королевства / The Nutcracker and the Four Realms [2018 BDRip] bober100 Скачать
1 | 0

28-11-2019 20:33  

Отключить всю рекламу на сайте

09-03-2019 00:04 Щелкунчик и четыре королевства Скачать торрент  

Спасибо большое за Украинский дубляж!piratbit.org



08-06-2019 18:28 Щелкунчик и четыре королевства Скачать торрент  

ахах, первый же кадр улыбнул - негр в щелкунчике=)))piratbit.org



    Дорогой пользователь! Огромная просьба, поблагодарите релизера, оцените раздачу и оставьте свои комментарий, если Вы скачали Щелкунчик и четыре королевства через торрент бесплатно! Внесите свою лепту в развитие PiratBit!
    Комментировать посты могут только пользователи прошедшие не сложную регистрацию
    Показать сообщения:    

    Щелкунчик и четыре королевства через торрент
    Скачать бесплатно Щелкунчик и четыре королевства
    Щелкунчик и четыре королевства скачать торрент
    Щелкунчик и четыре королевства смотреть онлайн
    Cкачать фильм Щелкунчик и четыре королевства бесплатно
    Щелкунчик и четыре королевства скачать торрент в хорошем качестве
    Щелкунчик и четыре королевства смотреть онлайн бесплатно в хорошем качестве


    Вы не можете начинать темы
    Вы не можете отвечать на сообщения
    Вы не можете редактировать свои сообщения
    Вы не можете удалять свои сообщения
    Вы не можете голосовать в опросах
    Вы не можете прикреплять файлы к сообщениям
    Вы можете скачивать файлы