2 сезон

iTunes

WEBRip

1

2 сезон

iTunes

1 сезон

1 сезон

RePack

30

Новинка

ВАЖНО

ИГРА 18+

pack

RePack

MK11
pack

Легкие деньги

RePack

jed

RePack

fifa19

RePack

RDR2

RePack

NEED FOR SPEED™ PAYBACK

4 сезон

9 сезон

Бесстыжие 9 сезон

Все сериалы

все сериалы на PB.wtf

RePack

FAR CRY 5

Anonymous, доброй ночи, мы не успеваем собрать деньги на оплату серверов за февраль, помогите нам пожалуйста в это трудное время. В качестве благодарности мы отключим Вам всю рекламу на сайте (укажите свой ник в строку Ваше имя)!

×
  
Magnet ссылка

Бамблби / Bumblebee (Трэвис Найт) [2018, фантастика, боевик, приключения, WEBRip 1080p] [Ukr DUB] piratbit.org

Бамблби через торрент piratbit.org

Раздают: 1 [ 0 KB/s ]
Размер: 5.38 GB | Добавлен: 2 года 1 мес. назад | Торрент скачан:102 раза
Скачать  

28-01-2019 07:41 Бамблби Скачать торрент  

Бамблби / Bumblebee
Год выпуска: 2018
Страна: США
Жанр: фантастика, боевик, приключения
Продолжительность: 01:53:47
Перевод : Украинский (дублированный)
Субтитры: вшитые (корейские)

Режиссер: Трэвис Найт

В ролях: Дилан О Брайен, Хейли Стайнфелд, Джастин Теру, Джон Сина, Анджела Бассетт, Памела Адлон, Мегин Прайс, Грэй ДеЛисл, Питер Каллен, Кеннет Чои

Описание: 1987 год. Скрываясь от преследования, Бамблби находит убежище на автомобильной свалке в калифорнийском городке, где живет Чарли. Девушке скоро исполнится 18, она стремится найти свое место в жизни. И именно она наталкивается на покореженного и сломленного Бамблби. Приведя его в чувство, Чарли моментально осознает: на ее пути оказался не простой желтый Фольксваген Жук...

ratingскриншот  

Качество : WEBRip 1080p
Формат видео : MKV
Видео : 1920x1080, 29.970 fps, ~6500 kbps avg
Звук 1: 48 kHz, AAC Dolby Digital, 2 ch, ~128 kbps - Ukr DUB
Звук 2: 48 kHz, AAC Dolby Digital, 6 ch, ~256 kbps - Eng
General
Unique ID : 52052951668035492387449547938282437265 (0x272908A92806BE04E0E2893BDD817A91)
Complete name : C:\Bumblebee.2018.RERIP.1080p.KORSUB.HDRip.x264.AAC2.0-UKR-ENG.mkv
Format : Matroska
Format version : Version 4
File size : 5.38 GiB
Duration : 1 h 53 min
Overall bit rate : 6 764 kb/s
Movie name : Bumblebee.2018.RERIP.1080p.KORSUB.HDRip.x264.AAC2.0-UKR-ENG
Encoded date : UTC 2019-01-27 23:53:07
Writing application : mkvmerge v30.1.0 ('Forever And More') 64-bit
Writing library : libebml v1.3.6 + libmatroska v1.4.9

Video
ID : 1
Format : AVC
Format/Info : Advanced Video Codec
Format profile : High@L4.1
Format settings : CABAC / 4 Ref Frames
Format settings, CABAC : Yes
Format settings, ReFrames : 4 frames
Codec ID : V_MPEG4/ISO/AVC
Duration : 1 h 53 min
Bit rate : 6 500 kb/s
Width : 1 920 pixels
Height : 1 080 pixels
Display aspect ratio : 16:9
Frame rate mode : Constant
Frame rate : 29.970 (30000/1001) FPS
Color space : YUV
Chroma subsampling : 4:2:0
Bit depth : 8 bits
Scan type : Progressive
Bits/(Pixel*Frame) : 0.105
Stream size : 5.07 GiB (94%)
Title : Bumblebee.2018.RERIP.1080p.KORSUB.HDRip.x264.AAC2.0-STUTTERSHIT
Writing library : x264 core 148 r2795M aaa9aa8
Encoding settings : cabac=1 / ref=4 / deblock=1:0:0 / analyse=0x3:0x113 / me=umh / subme=9 / psy=1 / psy_rd=1.00:0.00 / mixed_ref=1 / me_range=16 / chroma_me=1 / trellis=2 / 8x8dct=1 / cqm=0 / deadzone=21,11 / fast_pskip=1 / chroma_qp_offset=-2 / threads=24 / lookahead_threads=2 / sliced_threads=0 / nr=0 / decimate=1 / interlaced=0 / bluray_compat=0 / constrained_intra=0 / bframes=3 / b_pyramid=2 / b_adapt=2 / b_bias=0 / direct=3 / weightb=1 / open_gop=0 / weightp=2 / keyint=250 / keyint_min=25 / scenecut=40 / intra_refresh=0 / rc_lookahead=50 / rc=abr / mbtree=1 / bitrate=6500 / ratetol=1.0 / qcomp=0.60 / qpmin=0 / qpmax=69 / qpstep=4 / ip_ratio=1.40 / aq=1:1.00
Language : English
Default : Yes
Forced : No

Audio #1
ID : 2
Format : AAC LC
Format/Info : Advanced Audio Codec Low Complexity
Codec ID : A_AAC-2
Duration : 1 h 53 min
Bit rate : 128 kb/s
Channel(s) : 2 channels
Channel layout : L R
Sampling rate : 48.0 kHz
Frame rate : 46.875 FPS (1024 SPF)
Compression mode : Lossy
Stream size : 104 MiB (2%)
Language : Ukrainian
Default : Yes
Forced : No

Audio #2
ID : 3
Format : AAC LC
Format/Info : Advanced Audio Codec Low Complexity
Codec ID : A_AAC-2
Duration : 1 h 53 min
Bit rate : 256 kb/s
Channel(s) : 2 channels
Channel layout : L R
Sampling rate : 48.0 kHz
Frame rate : 46.875 FPS (1024 SPF)
Compression mode : Lossy
Delay relative to video : 112 ms
Stream size : 208 MiB (4%)
Language : English
Default : No
Forced : No
скриншот  скриншот  скриншот  скриншот  
piratbit.org



Скачать Бамблби через торрент https://i109.fastpic.ru/big/2019/0128/34/526b99f6a7afa6c109ad438f1c73ab34.jpg Скачать фильм Бамблби через торрент бесплантно в хорошем качестве Описание: 1987 год. Скрываясь от преследования, Бамблби находит убежище на автомобильной свалке в калифорнийском городке, где живет Чарли. ... 9.9 10 8
Info! Золотая раздача, скачанное не засчитывается.
Торрент: Зарегистрирован [2019-01-28 07:41] · скачан: 102 раз
Статус: √ проверено
Размер: 5.38 GB
Как cкачать? Как скачать Бамблби через торрент | UTorrent

% Раздел Тема Автор DL S | L
Фильмы (HD 720p, 1080p) (48-60 fps) [ 4.52 GB ] Бамблби / Bumblebee [2018 BDRip 720p / 60 FPS ] от R.G. HD-Films slaventi-69 Скачать
1 | 0
Фильмы [HD 720p, 1080p] (Хороший звук DUB, MVO) [ 16.15 GB ] Бамблби / Bumblebee [2018 BDRip 1080p] DUB [] + 2xMVO [СВ Студия HDRezka Studio] sheker187 Скачать
1 | 0
Фильмы (Blu-ray, BD-Remux, HDDVD) [ 26.5 GB ] Бамблби / Bumblebee [2018 BDRemux 1080p] DUB [] + 2xMVO [СВ Студия HDRezka Studio] sheker187 Скачать
1 | 0
Фильмы (WEB-DL 720p, 1080p) [ 8.47 GB ] Бамблби / Bumblebee [2018 BDRip 1080p] [] + 2x[MVO] killermax2013 Скачать
2 | 0
Фильмы 2018 [DVDrip, WEB-DLRip, HDrip] (DUB, MVO) [ 1.46 GB ] Бамблби / Bumblebee [2018 BDRip] - [] Twi7ter Скачать
1 | 0
Фильмы 2018 [DVDrip, WEB-DLRip, HDrip] (DUB, MVO) [ 2.19 GB ] Бамблби / Bumblebee [2018 BDRip] - [] Twi7ter Скачать
1 | 0
Фильмы [HD 720p, 1080p] (Хороший звук DUB, MVO) [ 8.21 GB ] Бамблби / Bumblebee [2018 BDRip 720p] DUB [] + 2xMVO [СВ Студия HDRezka Studio] sheker187 Скачать
2 | 0

28-11-2019 20:33  

Отключить всю рекламу на сайте


    Дорогой пользователь! Огромная просьба, поблагодарите релизера, оцените раздачу и оставьте свои комментарий, если Вы скачали Бамблби через торрент бесплатно! Внесите свою лепту в развитие PiratBit!
    Комментировать посты могут только пользователи прошедшие не сложную регистрацию
    Показать сообщения:    

    Бамблби через торрент
    Скачать бесплатно Бамблби
    Бамблби скачать торрент
    Бамблби смотреть онлайн
    Cкачать фильм Бамблби бесплатно
    Бамблби скачать торрент в хорошем качестве
    Бамблби смотреть онлайн бесплатно в хорошем качестве


    Вы не можете начинать темы
    Вы не можете отвечать на сообщения
    Вы не можете редактировать свои сообщения
    Вы не можете удалять свои сообщения
    Вы не можете голосовать в опросах
    Вы не можете прикреплять файлы к сообщениям
    Вы можете скачивать файлы