Лицензия

MVO

1

1 сезон

Лицензия

Лицензия

13

MVO

1 сезон

Deluxe Edition

pack

Рекомендуем

30

Repack

ВАЖНО

ВАЖНО

Ghostwire

RePack

jed

RePack

fifa19

RePack

RDR2

RePack

NEED FOR SPEED™ PAYBACK

RePack

Кинопоиск HD

 Острые козырьки 6 сезон

6 сезон

FAR CRY 6

RePack

Лицензия

MVO

1

1 сезон

1 сезон

Лицензия

  

Павлуха (Семен Туманов, Георгий Щукин) [1962, СССР, драма, SATRip-AVC от AVP Studio]

Павлуха через торрент piratbit.org

Размер: 745 MB | Добавлен: 3 года 7 мес. назад | Торрент скачан:7 раз
Смотреть онлайн Павлуха | Скачать   

29-01-2019 08:07 Павлуха Скачать торрент  

Павлуха
Страна: СССР
Производство: Мосфильм

Жанр: драма
Год выпуска: 1962
Продолжительность: 01:06:26

Перевод: Не требуется
Cубтитры: нет
Оригинальная аудиодорожка: русский

Режиссер: Семен Туманов, Георгий Щукин

В ролях:
Коля Козлов, Раиса Куркина, Николай Лебедев (II), Надежда Румянцева, Владимир Соловьёв, Владимир Гусев, Нонна Мордюкова, Лена Руденко, Владимир Семёнов, Витя Солодовников, Вова Солодовников, Виктор Хохряков, Иван Рыжов, Борис Новиков...
Об актёрах подробней

Описание:
Двенадцатилетний Павлуха живет в рыболовецком совхозе вместе с матерью. Отец давно бросил семью, в которой, кроме Павлухи, еще двое детей. Чтобы как-то помочь матери, мальчик отправляется в город на заработки...

Исходник: DVB
Качество видео: SATRip-AVC
Формат видео: MKV

Видео: 688->760x570 (4:3), 25,000 кадров/сек, H264 ~ 1373 kbps avg, 0.140 bit/pixel
Аудио: 48 kHz, Dolby Digital AC3 2.0, 192 kbps

Раздача от:
Общее
Полное имя : Pavluha.1962.SATRip-AVC_[New-team]_by_AVP_Studio.mkv
Формат : Matroska
Версия формата : Version 2
Размер файла : 745 Мбайт
Продолжительность : 1 ч. 6 м.
Общий поток : 1567 Кбит/сек
Дата кодирования : UTC 2019-01-27 11:40:28
Программа кодирования : mkvmerge v6.1.0 ('Old Devil') built on Mar 4 2013 09:10:42
Библиотека кодирования : libebml v1.3.0 + libmatroska v1.4.0

Видео
Идентификатор : 1
Формат : AVC
Формат/Информация : Advanced Video Codec
Профиль формата : High@L4.1
Настройки формата : CABAC / 10 Ref Frames
Параметр CABAC формата : Да
Параметр RefFrames формата : 10 кадров
Идентификатор кодека : V_MPEG4/ISO/AVC
Продолжительность : 1 ч. 6 м.
Битрейт : 1373 Кбит/сек
Ширина : 688 пикселей
Высота : 570 пикселей
Соотношение сторон : 4:3
Режим частоты кадров : Постоянный
Частота кадров : 25,000 кадров/сек
Цветовое пространство : YUV
Субдискретизация насыщенности : 4:2:0
Битовая глубина : 8 бит
Тип развёртки : Прогрессивная
Бит/(Пиксели*Кадры) : 0.140
Размер потока : 638 Мбайт (86%)
Библиотека кодирования : x264 core 157 r2932 303c484
Настройки программы : cabac=1 / ref=10 / deblock=1:-2:-1 / analyse=0x3:0x113 / me=umh / subme=10 / psy=1 / psy_rd=1.00:0.00 / mixed_ref=1 / me_range=32 / chroma_me=1 / trellis=2 / 8x8dct=1 / cqm=0 / deadzone=21,11 / fast_pskip=1 / chroma_qp_offset=-2 / threads=6 / lookahead_threads=1 / sliced_threads=0 / nr=0 / decimate=0 / interlaced=0 / bluray_compat=0 / constrained_intra=0 / bframes=8 / b_pyramid=2 / b_adapt=2 / b_bias=0 / direct=3 / weightb=1 / open_gop=0 / weightp=2 / keyint=250 / keyint_min=25 / scenecut=40 / intra_refresh=0 / rc=2pass / mbtree=0 / bitrate=1373 / ratetol=1.0 / qcomp=0.60 / qpmin=0 / qpmax=69 / qpstep=4 / cplxblur=20.0 / qblur=0.5 / ip_ratio=1.40 / pb_ratio=1.30 / aq=1:1.00
Default : Да
Forced : Нет

Аудио
Идентификатор : 2
Формат : AC-3
Формат/Информация : Audio Coding 3
Коммерческое название : Dolby Digital
Идентификатор кодека : A_AC3
Продолжительность : 1 ч. 6 м.
Вид битрейта : Постоянный
Битрейт : 192 Кбит/сек
Каналы : 2 канала
Channel layout : L R
Частота : 48,0 КГц
Частота кадров : 31,250 кадров/сек (1536 SPF)
Битовая глубина : 16 бит
Метод сжатия : С потерями
Размер потока : 91,3 Мбайт (12%)
Default : Да
Forced : Нет



Скачать Павлуха через торрент http://picplus.ru/img/1901/27/68897e6e.png Скачать, смотреть онлайн Павлуха бесплантно в хорошем качестве Описание:Двенадцатилетний Павлуха живет в рыболовецком совхозе вместе с матерью. Отец давно бросил семью, в которой, кроме Павлухи, еще ... 5 10 1
Info! Золотая раздача, скачанное не засчитывается.
Торрент: Зарегистрирован [2019-01-29 08:07] · скачан: 7 раз
Статус: √ проверено
Размер: 745 MB
Как cкачать? Как скачать Павлуха через торрент | UTorrent

% Раздел Тема Автор DL S | L
Кино СССР [ 744 MB ] Павлуха | | SATRip от AVP Studio AVP Studio Скачать
1 | 0

28-11-2019 20:33  

Отключить вcю реклaмy на сайте

    Дорогой пользователь! Огромная просьба, поблагодарите релизера, оцените раздачу и оставьте свои комментарий, если Вы скачали Павлуха через торрент бесплатно!!
    Комментировать посты могут только пользователи прошедшие не сложную регистрацию
    Показать сообщения:    


    Павлуха через торрент
    Скачать бесплатно Павлуха
    Павлуха скачать торрент
    Павлуха смотреть онлайн
    Cкачать фильм Павлуха бесплатно
    Павлуха скачать торрент в хорошем качестве
    Павлуха смотреть онлайн бесплатно в хорошем качестве
    Вы не можете начинать темы
    Вы не можете отвечать на сообщения
    Вы не можете редактировать свои сообщения
    Вы не можете удалять свои сообщения
    Вы не можете голосовать в опросах
    Вы не можете прикреплять файлы к сообщениям
    Вы можете скачивать файлы