Достать ножи: Стеклянная луковица

MVO

Добыча

Дубляж

Уэнсдэй

1 сезон

Тор

Дубляж

13 клиническая

1 сезон

Жестокая ночь

MVO

Одни из нас

1 сезон

Deluxe

pack

Рекомендуем

30

Пиратка

ВАЖНО

ВАЖНО

Ghostwire

Пиратка

jed

RePack

nioh2

RePack

RDR2

RePack

NEED FOR SPEED™ PAYBACK

RePack

скачать торрент

Кинопоиск HD

Острые козырьки 6 сезон

6 сезон

FAR CRY 6

RePack

скачать торрент

Лицензия

скачать торрент

MVO

1

1 сезон

скачать торрент

1 сезон

скачать торрент

Лицензия

  

Хищник / The Predator (Шейн Блэк) [2018, ужасы, фантастика, боевик, триллер, приключения, UHD BDRemux 2160p] MVO [HDRezka] +AVO [М.Яроцкий] +Дубляж (rus ukr) [Лицензия]

Хищник через торрент piratbit.org

Размер: 52.74 GB | Добавлен: 4 года 1 мес. назад | Торрент скачан:94 раза
Смотреть онлайн | Скачать | Поддержите нас   

25-12-2018 07:40 Хищник Скачать торрент  

Хищник / The Predator
Год выпуска: 2018
Страна: Китай, США
Жанр: ужасы, фантастика, боевик, триллер, приключения
Продолжительность: 01:46:56
Перевод:

#1: Дублированный | Лицензия
#2: Авторский | М. Яроцкий
#3: Профессиональный многоголосый | HDRezka

Субтитры: Русские (Forced, full), английские

Режиссер: Шейн Блэк

rating

В ролях:

Бойд Холбрук, Треванте Роудс, Джейкоб Тремблей, Кигэн-Майкл Ки, Оливия Манн, Стерлинг К. Браун, Томас Джейн, Алфи Аллен, Августо Агилера, Джейк Бьюзи

Описание:

Главный герой, бывший морпех, обнаруживает злобную инопланетную расу на Земле, но никто не верит ему, что эти твари существуют. Его сын-аутист, которого все обижают в школе, становится ключевой фигурой в схватке с Хищниками, поскольку мальчик умеет невероятно быстро учить языки и, судя по всему, сможет понять пришельцев.

Качество: UHD BDRemux 2160p
Формат: MKV

Видео: HEVC HDR, 57,7 Мбит/с, 3840x2160
Аудио#1: 48 kHz, DTS, 5.1, 768 Kbps | Дублированный | RUS |
Аудио#2: 48 kHz, AC3, 5.1, 448 Kbps | Дублированный | RUS |
Аудио#3: 48 kHz, AC3, 2.0, 192 Kbps | Профессиональный многоголосый | RUS |
Аудио#4: 48 kHz, DTS MA, 48.0 kHz, 8 ch, 5 261 Kbps | Авторский | RUS |
Аудио#5: 48 kHz, AC3, 5.1, 448 Kbps | Дублированный | UKR |
Аудио#6: TrueHD TrueHD+Atmos / TrueHD, / 48.0 kHz, Object Based / 8 ch, 5 087 kb/s | ENG |
Аудио#7: 48 kHz, AC3, 5.1, 640 Kbps | Оригинал | ENG |
скриншот  скриншот  скриншот  скриншот  скриншот  

Общее
Уникальный идентификатор : 112447620891037689049329629365745475240 (0x54989FC018CB2FF0DDD87135588FDEA8)
Полное имя : E:\The.Predator.2018.UHD.BDRemux.2160p.HEVC.HDR.IVA(3хRUS.UKR.ENG).ExKinoRay.mkv
Формат : Matroska
Версия формата : Version 4 / Version 2
Размер файла : 52,7 Гбайт
Продолжительность : 1 ч. 46 м.
Режим общего битрейта : Переменный
Общий поток : 70,6 Мбит/сек
Название фильма : Хищник / The Predator ( 2018 ) UHD BDRemux | HDR, 4K | IVA(RUS.ENG) | ExKinoRay
Дата кодирования : UTC 2018-12-24 10:45:00
Программа кодирования : mkvmerge v29.0.0 ('Like It Or Not') 64-bit
Библиотека кодирования : libebml v1.3.6 + libmatroska v1.4.9
Обложка : Yes
Attachments : cover

Видео
Идентификатор : 1
Формат : HEVC
Формат/Информация : High Efficiency Video Coding
Профиль формата : Main 10@L5.1@High
Идентификатор кодека : V_MPEGH/ISO/HEVC
Продолжительность : 1 ч. 46 м.
Битрейт : 57,7 Мбит/сек
Ширина : 3840 пикселей
Высота : 2160 пикселей
Соотношение сторон : 16:9
Режим частоты кадров : Постоянный
Частота кадров : 23,976 (24000/1001) кадра/сек
Цветовое пространство : YUV
Субдискретизация насыщенности : 4:2:0 (Type 2)
Битовая глубина : 10 бит
Язык : English
Default : Да
Forced : Нет
Цветовой диапазон : Limited
Основные цвета : BT.2020
Характеристики трансфера : PQ
Коэффициенты матрицы : BT.2020 non-constant
MasteringDisplay_ColorPrimaries : Display P3
MasteringDisplay_Luminance : min: 0.0050 cd/m2, max: 1000 cd/m2

Аудио #1
Идентификатор : 2
Формат : DTS
Формат/Информация : Digital Theater Systems
Идентификатор кодека : A_DTS
Продолжительность : 1 ч. 46 м.
Вид битрейта : Постоянный
Битрейт : 768 Кбит/сек
Каналы : 6 каналов
Расположение каналов : Front: L C R, Side: L R, LFE
Частота : 48,0 КГц
Частота кадров : 93,750 кадра/сек (512 SPF)
Битовая глубина : 24 бит
Метод сжатия : С потерями
Размер потока : 588 Мбайт (1%)
Заголовок : Дублированный
Язык : Russian
Default : Да
Forced : Нет

Аудио #2
Идентификатор : 3
Формат : AC-3
Формат/Информация : Audio Coding 3
Идентификатор кодека : A_AC3
Продолжительность : 1 ч. 46 м.
Вид битрейта : Постоянный
Битрейт : 448 Кбит/сек
Каналы : 6 каналов
Расположение каналов : Front: L C R, Side: L R, LFE
Частота : 48,0 КГц
Частота кадров : 31,250 кадров/сек (1536 SPF)
Битовая глубина : 16 бит
Метод сжатия : С потерями
Размер потока : 343 Мбайт (1%)
Заголовок : Дублированный
Язык : Russian
ServiceKind/String : Complete Main
Default : Нет
Forced : Нет

Аудио #3
Идентификатор : 4
Формат : AC-3
Формат/Информация : Audio Coding 3
Идентификатор кодека : A_AC3
Продолжительность : 1 ч. 46 м.
Вид битрейта : Постоянный
Битрейт : 448 Кбит/сек
Каналы : 6 каналов
Расположение каналов : Front: L C R, Side: L R, LFE
Частота : 48,0 КГц
Частота кадров : 31,250 кадров/сек (1536 SPF)
Битовая глубина : 16 бит
Метод сжатия : С потерями
Размер потока : 343 Мбайт (1%)
Заголовок : Дублированный
Язык : Ukrainian
ServiceKind/String : Complete Main
Default : Нет
Forced : Нет

Аудио #4
Идентификатор : 5
Формат : AC-3
Формат/Информация : Audio Coding 3
Идентификатор кодека : A_AC3
Продолжительность : 1 ч. 46 м.
Вид битрейта : Постоянный
Битрейт : 192 Кбит/сек
Каналы : 2 канала
Расположение каналов : Front: L R
Частота : 48,0 КГц
Частота кадров : 31,250 кадров/сек (1536 SPF)
Битовая глубина : 16 бит
Метод сжатия : С потерями
Размер потока : 147 Мбайт (0%)
Заголовок : MVO [HDRezka]
Язык : Russian
ServiceKind/String : Complete Main
Default : Нет
Forced : Нет

Аудио #5
Идентификатор : 6
Формат : DTS
Формат/Информация : Digital Theater Systems
Профиль формата : MA / ES Matrix / Core
Идентификатор кодека : A_DTS
Продолжительность : 1 ч. 46 м.
Вид битрейта : Переменный / Постоянный / Постоянный
Битрейт : Неизвестно / 1509 Кбит/сек / 1509 Кбит/сек
Каналы : 8 каналов / 7 каналов / 6 каналов
Расположение каналов : Front: L C R, Side: L R, Back: L R, LFE / Front: L C R, Side: L R, Back: C, LFE / Front: L C R, Side: L R, LFE
Частота : 48,0 КГц
Частота кадров : 93,750 кадра/сек (512 SPF)
Битовая глубина : 24 бит
Метод сжатия : Без потерь / Lossy / Lossy
Заголовок : AVO [М. Яроцкий]
Язык : Russian
Default : Нет
Forced : Нет

Аудио #6
Идентификатор : 7
Формат : TrueHD
Профиль формата : TrueHD+Atmos / TrueHD
Идентификатор кодека : A_TRUEHD
Вид битрейта : Переменный
Максимальный битрейт : 8853 Кбит/сек
Каналы : Object Based / 8 каналов
Расположение каналов : Object Based / Front: L C R, Side: L R, Back: L R, LFE
Частота : / 48,0 КГц
Частота кадров : 1200,000 кадров/сек (40 SPF)
Метод сжатия : Без потерь
Задержка видео : 4 мс.
Заголовок : Original
Язык : English
Default : Нет
Forced : Нет

Аудио #7
Идентификатор : 8
Формат : AC-3
Формат/Информация : Audio Coding 3
Идентификатор кодека : A_AC3
Продолжительность : 1 ч. 46 м.
Вид битрейта : Постоянный
Битрейт : 640 Кбит/сек
Каналы : 6 каналов
Расположение каналов : Front: L C R, Side: L R, LFE
Частота : 48,0 КГц
Частота кадров : 31,250 кадров/сек (1536 SPF)
Битовая глубина : 16 бит
Метод сжатия : С потерями
Задержка видео : 4 мс.
Размер потока : 490 Мбайт (1%)
Заголовок : Original, AC3 Core
Язык : English
ServiceKind/String : Complete Main
Default : Нет
Forced : Нет

Текст #1
Идентификатор : 9
Формат : UTF-8
Идентификатор кодека : S_TEXT/UTF8
Идентификатор кодека/Информация : UTF-8 Plain Text
Заголовок : Forced
Язык : Russian
Default : Нет
Forced : Да

Текст #2
Идентификатор : 10
Формат : UTF-8
Идентификатор кодека : S_TEXT/UTF8
Идентификатор кодека/Информация : UTF-8 Plain Text
Заголовок : Full
Язык : Russian
Default : Нет
Forced : Нет

Текст #3
Идентификатор : 11
Формат : UTF-8
Идентификатор кодека : S_TEXT/UTF8
Идентификатор кодека/Информация : UTF-8 Plain Text
Заголовок : Forced
Язык : Ukrainian
Default : Нет
Forced : Да

Текст #4
Идентификатор : 12
Формат : UTF-8
Идентификатор кодека : S_TEXT/UTF8
Идентификатор кодека/Информация : UTF-8 Plain Text
Заголовок : Full
Язык : English
Default : Нет
Forced : Нет

Текст #5
Идентификатор : 13
Формат : UTF-8
Идентификатор кодека : S_TEXT/UTF8
Идентификатор кодека/Информация : UTF-8 Plain Text
Заголовок : SDH
Язык : English
Default : Нет
Forced : Нет

Меню
00:00:00.000 : :Глава 01
00:02:00.703 : :Глава 02
00:08:32.929 : :Глава 03
00:09:45.334 : :Глава 04
00:13:47.660 : :Глава 05
00:16:09.176 : :Глава 06
00:17:36.430 : :Глава 07
00:20:21.470 : :Глава 08
00:25:01.958 : :Глава 09
00:27:36.279 : :Глава 10
00:31:10.076 : :Глава 11
00:36:23.347 : :Глава 12
00:38:00.653 : :Глава 13
00:39:42.546 : :Глава 14
00:44:34.713 : :Глава 15
00:49:15.911 : :Глава 16
00:53:18.612 : :Глава 17
00:58:34.510 : :Глава 18
00:59:58.511 : :Глава 19
01:03:16.292 : :Глава 20
01:06:36.826 : :Глава 21
01:09:51.020 : :Глава 22
01:12:26.633 : :Глава 23
01:15:55.634 : :Глава 24
01:18:52.686 : :Глава 25
01:21:24.629 : :Глава 26
01:23:08.942 : :Глава 27
01:27:08.806 : :Глава 28
01:30:55.241 : :Глава 29
01:32:14.820 : :Глава 30
01:35:08.411 : :Глава 31
01:40:00.202 : :Глава 32




Скачать Хищник через торрент https://b.radikal.ru/b20/1811/2b/50baf7385ebb.png Скачать, смотреть онлайн Хищник бесплантно в хорошем качестве Описание: Главный герой, бывший морпех, обнаруживает злобную инопланетную расу на Земле, но никто не верит ему, что эти твари существуют. ... 10 10 6
Торрент: Зарегистрирован [2018-12-25 07:40] · скачан: 94 раз
Статус: √ проверено
Размер: 52.74 GB
Как cкачать? Как скачать Хищник через торрент | UTorrent

% Раздел Тема Автор DL S | L
Ultra HD (UHD: 2K, 4K, 8K) [ 190.41 GB ] Хищник | DUB | 2160p sheker187 Скачать
1 | 1
Сборники (HD Video) [ 11.02 GB ] Хищник. Коллекция / Predator. Collection | DUB | BDRip 1080 nobana Скачать
1 | 0
Фильмы (HD 720p, 1080p) (48-60 fps) [ 3.7 GB ] Хищник / The Predator | Дубляж | 720p / 60 FPS slaventi-69 Скачать
3 | 0
Ultra HD (UHD: 2K, 4K, 8K) [ 55.74 GB ] Хищник / The Predator | Лицензия | 2160p sheker187 Скачать
1 | 0
Фильмы 2018 [DVDrip, WEB-DLRip, HDrip] (DUB, MVO) [ 1.46 GB ] Хищник / The Predator | Лицензия | BDRip Twi7ter Скачать
1 | 0
Фильмы 2018 [DVDrip, WEB-DLRip, HDrip] (DUB, MVO) [ 2.18 GB ] Хищник / The Predator | Лицензия | BDRip Twi7ter Скачать
1 | 0
Фильмы с авторской озвучкой [ 1.46 GB ] Хищник / The Predator | AVO | BDRip killermax2013 Скачать
1 | 0

28-11-2019 20:33  


Отключить вcю реклaмy на сайте, в т.ч. и в плеере онлайн просмотра!

    Дорогой пользователь! Огромная просьба, поблагодарите релизера, оцените раздачу и оставьте свои комментарий, если Вы скачали Хищник через торрент бесплатно!!
    Комментировать посты могут только пользователи прошедшие не сложную регистрацию
    Показать сообщения:    


    Хищник через торрент
    Скачать бесплатно Хищник
    Хищник скачать торрент
    Хищник смотреть онлайн
    Cкачать фильм Хищник бесплатно
    Хищник скачать торрент в хорошем качестве
    Хищник смотреть онлайн бесплатно в хорошем качестве
    Вы не можете начинать темы
    Вы не можете отвечать на сообщения
    Вы не можете редактировать свои сообщения
    Вы не можете удалять свои сообщения
    Вы не можете голосовать в опросах
    Вы не можете прикреплять файлы к сообщениям
    Вы можете скачивать файлы
    Хищник / The Predator [2018, ужасы, фантастика, боевик, триллер, приключения, UHD BDRemux 2160p] MVO [HDRezka] +AVO [М.Яроцкий] +Дубляж [Лицензия] смотреть онлайн, скачать торрент picoco.icu