Достать ножи: Стеклянная луковица

MVO

Добыча

Дубляж

Уэнсдэй

1 сезон

Тор

Дубляж

13 клиническая

1 сезон

Жестокая ночь

MVO

Одни из нас

1 сезон

Deluxe

pack

Рекомендуем

30

Пиратка

ВАЖНО

ВАЖНО

Ghostwire

Пиратка

jed

RePack

nioh2

RePack

RDR2

RePack

NEED FOR SPEED™ PAYBACK

RePack

скачать торрент

Кинопоиск HD

Острые козырьки 6 сезон

6 сезон

FAR CRY 6

RePack

скачать торрент

Лицензия

скачать торрент

MVO

1

1 сезон

скачать торрент

1 сезон

скачать торрент

Лицензия

  

Пираньи / Piranha (Александр Ажа / Alexandre Aja) [2010г., ужасы, триллер, комедия, BDRemux 1080p]

Пираньи через торрент piratbit.org

Размер: 16.62 GB | Добавлен: 12 лет назад | Торрент скачан:40 раз
Смотреть онлайн | Скачать | Поддержите нас   

02-01-2011 09:57 Пираньи Скачать торрент  

Пираньи / Piranha«It's jaws gone wild»
Год выпуска: 2010
Страна: США
Жанр: ужасы, триллер, комедия
Продолжительность: 01:28:22

  • Перевод: Профессиональный (дубляж)
  • Русские субтитры: есть
  • Формат субтитров: srt
  • Оригинальная аудиодорожка: Английская

Режиссер: Александр Ажа / Alexandre Aja
В ролях:
Элизабет Шу, Стивен Р. МакКуин, Джерри О’Коннелл, Ричард Дрейфус,с Винг Рэймс, Кристофер Ллойд, Элай Рот, Коуди Лонго, Джессика Зор, Келли Брук
Описание:
20 тысяч подростков курортного городка у озера Виктория готовятся к празднованию ежегодного праздника начала лета. Но ночное землетрясение высвобождает сотни тысяч доисторических пираний прямо накануне торжества. Очаровательная шериф, ее подчиненные-полицейские и доктор Горден Рэйбэнкс решают сделать все, чтобы веселый праздник молодежи в озере не превратился в кровавое пиршество. Но пираньи уже знают ответ, кто победит: молодость или многовековая жажда крови…

  • Качество: BDRemux | | Формат: MKV
  • Исходник: Piranha 3D 2010 BluRay 1080p AVC DTS-HD MA 5.1
  • Видео кодек: h.264 | Аудио кодек: DTS-HD
  • Видео: MPEG-4 AVC / 23861 kbps / 1080p / 23,976 fps / 16:9 / High Profile 4.1
  • Аудио 1: Русский дубляж Dolby Digital / 5.1 / 48 kHz / 448 kbps
  • Аудио 2: Английский DTS-HD Master / 5.1 / 2348 kbps / 48 kHz / 16-bit (DTS Core: 5.1 / 48 kHz / 1509 kbps / 16-bit)
  • Аудио 3:Английский Dolby Digital / 2.0 / 48 kHz / 224 kbps (коментарии)
  • Cубтитры 1: Русские
  • Cубтитры 2-3: Английские sdh, Английские sdh (pgs)

...............................................3D.............................................................................................2D...........................................



Полное имя : Piranha.2010.Blu-ray.1080p.AVC.Rus.Eng.mkv
Формат : Matroska
Размер файла : 16,6 Гбайт
Продолжительность : 1 ч. 28 м.
Общий поток : 26,9 Мбит/сек
Дата кодирования : UTC 2010-12-30 18:06:53
Программа кодирования : mkvmerge v4.4.0 ('Die Wiederkehr') built on Oct 31 2010 21:52:48
Библиотека кодирования : libebml v1.0.0 + libmatroska v1.0.0

Видео
Идентификатор : 1
Формат : AVC
Формат/Информация : Advanced Video Codec
Профиль формата : High@L4.1
Параметр CABAC формата : Да
Параметр ReFrames формата : 2 кадры
Режим смешивания : Container profile=Unknown@0.0
Идентификатор кодека : V_MPEG4/ISO/AVC
Продолжительность : 1 ч. 28 м.
Вид битрейта : Переменный
Битрейт : 24,2 Мбит/сек
Ширина : 1920 пикс.
Высота : 1080 пикс.
Соотношение сторон : 16:9
Частота кадров : 23,976 кадр/сек
Цветовое пространство : YUV
Подвыборка цветности : 4:2:0
Битовая глубина : 8 бит
Тип развёртки : Прогрессивная
Бит/(Пиксели*Кадры) : 0.486
Размер потока : 14,9 Гбайт (90%)
Заголовок : Piranha.2010.Blu-ray.1080p.AVC @ 23861 kbps
Язык : English

Аудио #1
Идентификатор : 2
Формат : AC-3
Формат/Информация : Audio Coding 3
Расширение режима : CM (complete main)
Идентификатор кодека : A_AC3
Продолжительность : 1 ч. 28 м.
Вид битрейта : Постоянный
Битрейт : 448 Кбит/сек
Канал(ы) : 6 канала(ов)
Расположение каналов : Front: L C R, Side: L R, LFE
Частота : 48,0 КГц
Битовая глубина : 16 бит
Метод сжатия : С потерями
Размер потока : 283 Мбайт (2%)
Заголовок : Дубляж
Язык : Russian

Аудио #2
Идентификатор : 3
Формат : DTS
Формат/Информация : Digital Theater Systems
Профиль формата : MA / Core
Идентификатор кодека : A_DTS
Продолжительность : 1 ч. 28 м.
Вид битрейта : Переменный
Битрейт : 1561 Кбит/сек / 1510 Кбит/сек
Канал(ы) : 6 канала(ов)
Расположение каналов : Front: L C R, Side: L R, LFE
Частота : 48,0 КГц
Битовая глубина : 16 бит
Метод сжатия : Без потерь / Lossy
Заголовок : DTS-HD MA 5.1 @ 2348 kbps
Язык : English

Аудио #3
Идентификатор : 4
Формат : AC-3
Формат/Информация : Audio Coding 3
Расширение режима : CM (complete main)
Идентификатор кодека : A_AC3
Продолжительность : 1 ч. 28 м.
Вид битрейта : Постоянный
Битрейт : 224 Кбит/сек
Канал(ы) : 2 канала(ов)
Расположение каналов : Front: L R
Частота : 48,0 КГц
Битовая глубина : 16 бит
Метод сжатия : С потерями
Размер потока : 142 Мбайт (1%)
Заголовок : Commentary
Язык : English

Текст #1
Идентификатор : 5
Формат : UTF-8
Идентификатор кодека : S_TEXT/UTF8
Идентификатор кодека/Информация : UTF-8 Plain Text
Язык : Russian

Текст #2
Идентификатор : 6
Формат : UTF-8
Идентификатор кодека : S_TEXT/UTF8
Идентификатор кодека/Информация : UTF-8 Plain Text
Заголовок : SDH
Язык : English

Текст #3
Идентификатор : 7
Формат : PGS
Идентификатор кодека : S_HDMV/PGS
Идентификатор кодека/Информация : The same subtitle format used on BDs/HD-DVDs
Заголовок : SDH
Язык : English

Меню
00:00:00.000 : en:Hungry Whirlpool
00:07:22.817 : en:Spring Break
00:13:04.659 : en:Dead Discovery
00:20:40.865 : en:Going Wild
00:30:20.068 : en:Get Out of the Water
00:38:55.792 : en:Original Piranha
00:45:19.342 : en:Jump In
00:51:20.786 : en:Dinner Time
01:01:22.095 : en:Chew On This
01:08:05.873 : en:Kelly's Stuck
01:16:33.464 : en:Babies
01:22:11.718 : en:End Credits

  • Александр Ажа планировал пригласить на эпизодические роли инструкторов по безопасности Джо Данте (режиссер оригинальной версии «Пираний» и Джеймса Кэмерона (режиссера сиквела). Данте согласился, но Кэмерон оказался слишком занят.
  • В одной из сцен, Джейк Форестер (Стив Р. МакКуин) говорит матери такую фразу «Мам, да все будет хорошо, мы посидим, посмотрим что-нибудь, «Челюсти», например». Эта отсылка - дань уважения Ричарду Дрейфуссу, сыгравшему в «Челюстях» 1975 года. В «Пираньях» актер сыграл Мэтта Бойда, рыбака и первую жертву кровожадных рыб.
  • Первоначально премьера фильма была запланирована на 16 апреля 2010 года, но потом дважды переносилась из-за затянувшегося постпродакшена.




Скачать Пираньи через торрент http://i14.fastpic.ru/big/2010/1231/17/c56d241b1f15f30daac244c9e7606917.png Скачать, смотреть онлайн Пираньи бесплантно в хорошем качестве Описание:20 тысяч подростков курортного городка у озера Виктория готовятся к празднованию ежегодного праздника начала лета. Но ночное ... 10 10 2
Info! Золотая раздача, скачанное не засчитывается.
Торрент: Зарегистрирован [2011-01-02 09:57] · скачан: 40 раз
Статус: √ проверено
Размер: 16.62 GB
Как cкачать? Как скачать Пираньи через торрент | UTorrent

28-11-2019 20:33  


Отключить вcю реклaмy на сайте, в т.ч. и в плеере онлайн просмотра!

18-02-2014 08:07 Пираньи Скачать торрент  

Раздавать вообще будут или нет ?????????



    Дорогой пользователь! Огромная просьба, поблагодарите релизера, оцените раздачу и оставьте свои комментарий, если Вы скачали Пираньи через торрент бесплатно!!
    Комментировать посты могут только пользователи прошедшие не сложную регистрацию
    Показать сообщения:    


    Пираньи через торрент
    Скачать бесплатно Пираньи
    Пираньи скачать торрент
    Пираньи смотреть онлайн
    Cкачать фильм Пираньи бесплатно
    Пираньи скачать торрент в хорошем качестве
    Пираньи смотреть онлайн бесплатно в хорошем качестве
    Вы не можете начинать темы
    Вы не можете отвечать на сообщения
    Вы не можете редактировать свои сообщения
    Вы не можете удалять свои сообщения
    Вы не можете голосовать в опросах
    Вы не можете прикреплять файлы к сообщениям
    Вы можете скачивать файлы
    Пираньи / Piranha [2010г., ужасы, триллер, комедия, BDRemux 1080p] смотреть онлайн, скачать торрент picoco.icu