Лицензия

MVO

1

1 сезон

Лицензия

Лицензия

13

MVO

1 сезон

Deluxe Edition

pack

Рекомендуем

30

Repack

ВАЖНО

ВАЖНО

Ghostwire

RePack

jed

RePack

fifa19

RePack

RDR2

RePack

NEED FOR SPEED™ PAYBACK

RePack

Кинопоиск HD

 Острые козырьки 6 сезон

6 сезон

FAR CRY 6

RePack

Лицензия

MVO

1

1 сезон

1 сезон

Лицензия

  

После свадьбы (Михаил Ершов) [1962, СССР, драма, SATRip от AVP Studio]

После свадьбы через торрент piratbit.org

Размер: 1.09 GB | Добавлен: 3 года 7 мес. назад | Торрент скачан:5 раз
Смотреть онлайн После свадьбы | Скачать   

31-01-2019 09:21 После свадьбы Скачать торрент  

После свадьбы
Страна: СССР
Производство: Ленфильм

Жанр: драма
Год выпуска: 1962
Продолжительность: 01:33:23

Перевод: Не требуется
Cубтитры: нет
Оригинальная аудиодорожка: русский

Режиссер: Михаил Ершов

В ролях:
Станислав Хитров, Наталья Кустинская, Алефтина Константинова, Леонард Борисевич, Павел Кашлаков, Юрий Соловьёв, Георгий Сатини, Вера Титова, Евгений Тетерин, Борис Коковкин...
Об актёрах подробней

Описание:
По одноименной повести Д.Гранина.
После свадьбы молодого рабочего парня посылают в деревню. Через год ему представляется возможность вернуться в Ленинград. Почувствовав себя необходимым колхозу, он остается в деревне...

Исходник: DVB
Качество видео: SATRip
Формат видео: AVI

Видео: 688x512 (4:3), 25,000 кадров/сек, XviD ~ 1469 kbps avg, 0.167 bit/pixel
Аудио: 48 kHz, Dolby Digital AC3 2.0, 192 kbps

Раздача от:
Общее
Полное имя : Posle.svadby.1962.SATRip_[New-team]_by_AVP_Studi.avi
Формат : AVI
Формат/Информация : Audio Video Interleave
Размер файла : 1,09 Гбайт
Продолжительность : 1 ч. 33 м.
Общий поток : 1671 Кбит/сек
Программа кодирования : VirtualDubMod 1.5.10.3 | www.virtualdub-fr.org || (build 2550/release)
Библиотека кодирования : VirtualDubMod build 2550/release

Видео
Идентификатор : 0
Формат : MPEG-4 Visual
Профиль формата : Advanced Simple@L5
Настройки формата : BVOP1 / Custom Matrix
Параметр BVOP формата : 1
Параметр QPel формата : Нет
Параметр GMC формата : Без точки перехода
Параметр матрицы формата : Выборочная
Идентификатор кодека : XVID
Идентификатор кодека/Подсказка : XviD
Продолжительность : 1 ч. 33 м.
Битрейт : 1469 Кбит/сек
Ширина : 688 пикселей
Высота : 512 пикселей
Соотношение сторон : 4:3
Частота кадров : 25,000 кадров/сек
Цветовое пространство : YUV
Субдискретизация насыщенности : 4:2:0
Битовая глубина : 8 бит
Тип развёртки : Прогрессивная
Метод сжатия : С потерями
Бит/(Пиксели*Кадры) : 0.167
Размер потока : 981 Мбайт (88%)
Библиотека кодирования : XviD 73

Аудио
Идентификатор : 1
Формат : AC-3
Формат/Информация : Audio Coding 3
Коммерческое название : Dolby Digital
Идентификатор кодека : 2000
Продолжительность : 1 ч. 33 м.
Вид битрейта : Постоянный
Битрейт : 192 Кбит/сек
Каналы : 2 канала
Channel layout : L R
Частота : 48,0 КГц
Частота кадров : 31,250 кадров/сек (1536 SPF)
Битовая глубина : 16 бит
Метод сжатия : С потерями
Размер потока : 128 Мбайт (11%)
Выравнивание : Разделение по промежуткам
Продолжительность промежутка : 40 мс. (1,00 видеокадр)
Время предзагрузки промежутка : 500 мс



Скачать После свадьбы через торрент http://picplus.ru/img/1901/27/cf6f5191.png Скачать, смотреть онлайн После свадьбы бесплантно в хорошем качестве Описание:По одноименной повести Д.Гранина.После свадьбы молодого рабочего парня посылают в деревню. Через год ему представляется ... 5 10 1
Торрент: Зарегистрирован [2019-01-31 09:21] · скачан: 5 раз
Статус: √ проверено
Размер: 1.09 GB
Как cкачать? Как скачать После свадьбы через торрент | UTorrent

% Раздел Тема Автор DL S | L
Кино СССР [ 1.09 GB ] После свадьбы | | SATRip-AVC от AVP Studio AVP Studio Скачать
1 | 0

28-11-2019 20:33  

Отключить вcю реклaмy на сайте

    Дорогой пользователь! Огромная просьба, поблагодарите релизера, оцените раздачу и оставьте свои комментарий, если Вы скачали После свадьбы через торрент бесплатно!!
    Комментировать посты могут только пользователи прошедшие не сложную регистрацию
    Показать сообщения:    


    После свадьбы через торрент
    Скачать бесплатно После свадьбы
    После свадьбы скачать торрент
    После свадьбы смотреть онлайн
    Cкачать фильм После свадьбы бесплатно
    После свадьбы скачать торрент в хорошем качестве
    После свадьбы смотреть онлайн бесплатно в хорошем качестве
    Вы не можете начинать темы
    Вы не можете отвечать на сообщения
    Вы не можете редактировать свои сообщения
    Вы не можете удалять свои сообщения
    Вы не можете голосовать в опросах
    Вы не можете прикреплять файлы к сообщениям
    Вы можете скачивать файлы