Мега распродажа FORZA HORIZON 4 ULTIMATE+ВСЕ DLC+ОНЛАЙН всего за 499р. 349 руб. (супер цена). Внимание количество ограничено!!!

Лицензия

30

iTunes

мы

iTunes

1

1 сезон

Чернобыль

1 сезон

Ральф против интернета

MVO

Покемон. Детектив Пикачу

8 сезон

Игра престолов

iTunes

1+1

ИГРА 18+

pack

ВАЖНО

!!Акция!!

Alien_RageХит недели

RePack

Resident Evil 21
pack

RePack

Metro:Exodus

!!Акция!!

Alien_Rage

RePack

fifa19

RePack

Assassins Creed: Odyssey

RePack

NEED FOR SPEED™ PAYBACK

3 сезон

9 сезон

Бесстыжие 9 сезон

Все сериалы

все сериалы на PB.wtf

RePack

FAR CRY 5
Ребята, катастрофически не хватает 2730р. для оплаты серверов за МАЙ (всвязи с блокировками трафик упал в 3 раза), 1-2р., выручайте.
  

Антиквариат / Antiquities (Дэниэл Кэмпбелл) [2018, комедия, WEB-DL 1080p] MVO [HDRezka Studio] piratbit.org

Антиквариат через торрент piratbit.org

Раздают: 5 [ 2 KB/s ] Качают: 1 [ 72 KB/s ]
Размер: 3.35 GB | Добавлен: 10 д. назад | Торрент скачан:33 раза
Скачать  

31-01-2019 18:07 Антиквариат Скачать торрент  

Антиквариат / Antiquities
Год выпуска: 2018
Страна: США
Жанр: комедия
Продолжительность: 01:33:03
Перевод: Профессиональный (многоголосый) | HDRezka Studio
Субтитры: отсутствуют

Режиссер: Дэниэл Кэмпбелл

rating

В ролях:

Мэри Стинберген, Эшли Грин, Эндрю Дж. Уэст, Микейла Уоткинс, Майкл Глэдис, Ингрид Хаас, Натали Кэнердей, Мелани Хэйнс, Трой Хоган

Описание:

После смерти отца, молодой человек по имени Уолтер хочет узнать о нём побольше, пожить его жизнью и прочувствовать всё на своей шкуре, но в итоге неизбежно сталкивается с собственными проблемами.

Качество: WEB-DL 1080p
Формат: MKV

Видео: 1920x816 (2.35:1), 23,976 fps, x264 ~4 573 kbps avg, 0.122 bit/pixel
Аудио#1: 48 kHz, AC3 Dolby Digital, 2 (L,R) ch, ~192.00 kbps avg | RUS (HDRezka Studio)
Аудио#2: 48 kHz, AC3 Dolby Digital, 3/2 (L,C,R,l,r) + LFE ch, ~384.00 kbps avg | ENG
скриншот  скриншот  скриншот  скриншот  

Общее
Уникальный идентификатор : 278950587332041122866781633824357102123 (0xD1DBEDCD5AE09E31356903832EC4322B)
Полное имя : F:OlLanDGroupAntiquities.2018.WEB-DL(1080p).OlLanDGroup.mkv
Формат : Matroska
Версия формата : Version 4 / Version 2
Размер файла : 3,35 Гбайт
Продолжительность : 1 ч. 33 м.
Общий поток : 5147 Кбит/сек
Название фильма : Antiquities.2018 #TorpedoUK#
Дата кодирования : UTC 2019-06-10 10:47:21
Программа кодирования : mkvmerge v29.0.0 ('Like It Or Not') 64-bit
Библиотека кодирования : libebml v1.3.6 + libmatroska v1.4.9

Видео
Идентификатор : 1
Формат : AVC
Формат/Информация : Advanced Video Codec
Профиль формата : High@L4
Параметр CABAC формата : Да
Параметр ReFrames формата : 5 кадров
Идентификатор кодека : V_MPEG4/ISO/AVC
Продолжительность : 1 ч. 33 м.
Битрейт : 4573 Кбит/сек
Ширина : 1920 пикселей
Высота : 816 пикселей
Соотношение сторон : 2,35:1
Режим частоты кадров : Постоянный
Частота кадров : 23,976 (24000/1001) кадра/сек
Цветовое пространство : YUV
Субдискретизация насыщенности : 4:2:0
Битовая глубина : 8 бит
Тип развёртки : Прогрессивная
Бит/(Пиксели*Кадры) : 0.122
Размер потока : 2,97 Гбайт (89%)
Заголовок : Antiquities.2018.1080p.WEB-DL.DD5.1.H264-FGT
Язык : English
Default : Да
Forced : Нет
Цветовой диапазон : Limited
Основные цвета : BT.709
Характеристики трансфера : BT.709
Коэффициенты матрицы : BT.709

Аудио #1
Идентификатор : 2
Формат : AC-3
Формат/Информация : Audio Coding 3
Расширение режима : CM (complete main)
Параметр Endianness формата : Big
Идентификатор кодека : A_AC3
Продолжительность : 1 ч. 33 м.
Вид битрейта : Постоянный
Битрейт : 192 Кбит/сек
Каналы : 2 канала
Расположение каналов : Front: L R
Частота : 48,0 КГц
Частота кадров : 31,250 кадров/сек (1536 spf)
Битовая глубина : 16 бит
Метод сжатия : С потерями
Размер потока : 128 Мбайт (4%)
Заголовок : MVO [HDRezka Studio]
Язык : Russian
Default : Да
Forced : Нет

Аудио #2
Идентификатор : 3
Формат : AC-3
Формат/Информация : Audio Coding 3
Расширение режима : CM (complete main)
Параметр Endianness формата : Big
Идентификатор кодека : A_AC3
Продолжительность : 1 ч. 33 м.
Вид битрейта : Постоянный
Битрейт : 384 Кбит/сек
Каналы : 6 каналов
Расположение каналов : Front: L C R, Side: L R, LFE
Частота : 48,0 КГц
Частота кадров : 31,250 кадров/сек (1536 spf)
Битовая глубина : 16 бит
Метод сжатия : С потерями
Размер потока : 256 Мбайт (7%)
Заголовок : [Original]
Язык : English
Default : Нет
Forced : Нет

Меню
00:00:00.000 : en:1
00:15:00.000 : en:2
00:30:00.000 : en:3
00:45:00.000 : en:4
01:00:00.000 : en:5
01:15:00.000 : en:6

piratbit.org



Скачать Антиквариат через торрент https://i110.fastpic.ru/big/2019/0610/85/0bbf791effbf854b7c93c86d59973385.png Скачать фильм Антиквариат через торрент бесплантно в хорошем качестве Описание: После смерти отца, молодой человек по имени Уолтер хочет узнать о нём побольше, пожить его жизнью и прочувствовать всё на своей ... 10 10 5
Торрент: Зарегистрирован [2019-06-10 11:25] · скачан: 33 раз
Статус: T временная
Размер: 3.35 GB
Как cкачать? Как скачать Антиквариат через торрент | qTorrent

% Раздел Тема Автор DL S | L
T Фильмы 2018 [DVDrip, WEB-DLRip, HDrip] (DUB, MVO) [ 1.46 GB ] Антиквариат / Antiquities [2018 WEB-DLRip] MVO [HDRezka Studio] bober100 Скачать
8 | 0


>> Регистрируемся здесь <<






Отзывы и комментарии о схеме читаем и пишем здесь: ---> Отзывы и комментарии о схеме

Новые благодарочки в телеграм довольных пользователей:
скриншот   скриншот   скриншот   скриншот   скриншот
    Дорогой пользователь! Огромная просьба, поблагодарите релизера, оцените раздачу и оставьте свои комментарий, если Вы скачали Антиквариат через торрент бесплатно! Внесите свою лепту в развитие PiratBit!
    Комментировать посты могут только пользователи прошедшие не сложную регистрацию
    Показать сообщения:    

    Антиквариат через торрент
    Скачать бесплатно Антиквариат
    Антиквариат скачать торрент
    Антиквариат смотреть онлайн
    Cкачать фильм Антиквариат бесплатно
    Антиквариат скачать торрент в хорошем качестве
    Антиквариат смотреть онлайн бесплатно в хорошем качестве


    Вы не можете начинать темы
    Вы не можете отвечать на сообщения
    Вы не можете редактировать свои сообщения
    Вы не можете удалять свои сообщения
    Вы не можете голосовать в опросах
    Вы не можете прикреплять файлы к сообщениям
    Вы можете скачивать файлы