2 сезон

iTunes

WEBRip

1

2 сезон

iTunes

1 сезон

1 сезон

RePack

30

Новинка

ВАЖНО

ИГРА 18+

pack

RePack

MK11
pack

Легкие деньги

RePack

jed

RePack

fifa19

RePack

RDR2

RePack

NEED FOR SPEED™ PAYBACK

4 сезон

9 сезон

Бесстыжие 9 сезон

Все сериалы

все сериалы на PB.wtf

RePack

FAR CRY 5

Anonymous, добрый вечер, мы не успеваем собрать деньги на оплату серверов за февраль, помогите нам пожалуйста в это трудное время. В качестве благодарности мы отключим Вам всю рекламу на сайте (укажите свой ник в строку Ваше имя)!

×
  
Magnet ссылка

На границе миров / Gräns (Али Аббаси) [2018, фэнтези, триллер, драма, мелодрама, WEB-DL 1080p] [Ukr MVO] [iTunes] piratbit.org

На границе миров через торрент piratbit.org

Размер: 3.66 GB | Добавлен: 2 года назад | Торрент скачан:44 раза
Скачать  

31-01-2019 19:10 На границе миров Скачать торрент  

На границе миров / Gräns
Год выпуска: 2018
Страна: Швеция, Дания
Жанр: фэнтези, триллер, драма, мелодрама
Продолжительность: 01:45:25
Перевод : Украинский (многоголосый)

Режиссер: Али Аббаси

В ролях: Ева Меландер, Ээро Милонофф, Йорген Торссон, Анн Петрен, Стен Льюнггрен, Кьелль Вильхельмсен, Ракель Вармландер, Андреас Кундлер, Матти Боустед, Томас Онстранд

Описание: Молодая женщина обладает удивительным даром определять людей, которые что-то скрывают. Неожиданно она встречает незнакомца, чьи разум и чувства для нее закрыты. Но именно ему будет суждено изменить ее судьбу навсегда, и заставить понять, что она находится на границе миров...

ratingскриншот  

Качество : WEB-DL 1080p
Формат видео : MKV
Видео : 1920x804, 25.000 fps, ~4968 kbps avg
Звук: 48 kHz, AC3 Dolby Digital, 6 ch, ~384 kbps
General
Unique ID : 138232675040539328450506603357000919626 (0x67FEA5129E1CF0FEB7BAB09025D76A4A)
Complete name : S:\» HD українською » Фільми в HD\Фентезі\Gräns (2018) WEB-DL 1080p [Hurtom].mkv
Format : Matroska
Format version : Version 4
File size : 3.66 GiB
Duration : 1 h 45 min
Overall bit rate : 4 968 kb/s
Movie name : Gräns (2018) WEB-DL 1080p [Hurtom]
Encoded date : UTC 2019-01-31 18:28:12
Writing application : mkvmerge v30.1.0 ('Forever And More') 64-bit
Writing library : libebml v1.3.6 + libmatroska v1.4.9
Cover : Yes
Attachments : cover.jpg

Video
ID : 1
Format : AVC
Format/Info : Advanced Video Codec
Format profile : High@L4
Format settings : CABAC / 5 Ref Frames
Format settings, CABAC : Yes
Format settings, ReFrames : 5 frames
Codec ID : V_MPEG4/ISO/AVC
Duration : 1 h 45 min
Bit rate : 4 581 kb/s
Width : 1 920 pixels
Height : 804 pixels
Display aspect ratio : 2.40:1
Frame rate mode : Constant
Frame rate : 25.000 FPS
Color space : YUV
Chroma subsampling : 4:2:0
Bit depth : 8 bits
Scan type : Progressive
Bits/(Pixel*Frame) : 0.119
Stream size : 3.37 GiB (92%)
Language : English
Default : Yes
Forced : No
Color range : Limited
Color primaries : BT.709
Transfer characteristics : BT.709
Matrix coefficients : BT.709

Audio
ID : 2
Format : AC-3
Format/Info : Audio Coding 3
Commercial name : Dolby Digital
Codec ID : A_AC3
Duration : 1 h 45 min
Bit rate mode : Constant
Bit rate : 384 kb/s
Channel(s) : 6 channels
Channel layout : L R C LFE Ls Rs
Sampling rate : 48.0 kHz
Frame rate : 31.250 FPS (1536 SPF)
Bit depth : 16 bits
Compression mode : Lossy
Delay relative to video : -40 ms
Stream size : 290 MiB (8%)
Language : Ukrainian
Service kind : Complete Main
Default : Yes
Forced : Yes

Menu
00:00:00.000 : en:Глава 1
00:07:40.680 : en:Глава 2
00:16:56.720 : en:Глава 3
00:26:17.840 : en:Глава 4
00:31:52.280 : en:Глава 5
00:38:32.039 : en:Глава 6
00:46:32.879 : en:Глава 7
00:56:08.199 : en:Глава 8
01:03:19.559 : en:Глава 9
01:12:23.399 : en:Глава 10
01:18:00.279 : en:Глава 11
01:25:10.398 : en:Глава 12
01:32:05.038 : en:Глава 13
01:36:00.077 : en:Глава 14
скриншот  скриншот  скриншот  
piratbit.org



Скачать На границе миров через торрент https://i110.fastpic.ru/big/2019/0131/c3/f7edf47a790290e17a815b0b367833c3.jpg Скачать фильм На границе миров через торрент бесплантно в хорошем качестве Описание: Молодая женщина обладает удивительным даром определять людей, которые что-то скрывают. Неожиданно она встречает незнакомца, чьи ... 10 10 1
Торрент: Зарегистрирован [2019-01-31 19:10] · скачан: 44 раз
Статус: √ проверено
Размер: 3.66 GB
Как cкачать? Как скачать На границе миров через торрент | UTorrent

% Раздел Тема Автор DL S | L
Фильмы [HD 720p, 1080p] (Хороший звук DUB, MVO) [ 8.04 GB ] На границе миров / Gräns [2018 BDRip 1080p] MVO + bober100 Скачать
1 | 0
Фильмы 2018 [DVDrip, WEB-DLRip, HDrip] (DUB, MVO) [ 2.05 GB ] На границе миров / Gräns [2018 HDRip] + [Ukr MVO] killermax2013 Скачать
4 | 0
Фильмы с украинским озвучиванием [ 1.44 GB ] На границе миров / Gräns [2018 WEB-DLRip] [Ukr MVO] - ExKinoRay Enigma2010 Скачать
1 | 0

28-11-2019 20:33  

Отключить всю рекламу на сайте

    Дорогой пользователь! Огромная просьба, поблагодарите релизера, оцените раздачу и оставьте свои комментарий, если Вы скачали На границе миров через торрент бесплатно! Внесите свою лепту в развитие PiratBit!
    Комментировать посты могут только пользователи прошедшие не сложную регистрацию
    Показать сообщения:    

    На границе миров через торрент
    Скачать бесплатно На границе миров
    На границе миров скачать торрент
    На границе миров смотреть онлайн
    Cкачать фильм На границе миров бесплатно
    На границе миров скачать торрент в хорошем качестве
    На границе миров смотреть онлайн бесплатно в хорошем качестве


    Вы не можете начинать темы
    Вы не можете отвечать на сообщения
    Вы не можете редактировать свои сообщения
    Вы не можете удалять свои сообщения
    Вы не можете голосовать в опросах
    Вы не можете прикреплять файлы к сообщениям
    Вы можете скачивать файлы