2 сезон

iTunes

WEBRip

1

2 сезон

iTunes

1 сезон

1 сезон

RePack

30

Ultimate

ВАЖНО

ИГРА 18+

pack

RePack

MK11
pack

Легкие деньги

RePack

jed

RePack

fifa19

RePack

RDR2

RePack

NEED FOR SPEED™ PAYBACK

4 сезон

9 сезон

Бесстыжие 9 сезон

Все сериалы

все сериалы на PB.wtf

RePack

FAR CRY 5

Anonymous, доброй ночи, мы не успеваем собрать деньги на оплату серверов за февраль, помогите нам пожалуйста в это трудное время. В качестве благодарности мы отключим Вам всю рекламу на сайте (укажите свой ник в строку Ваше имя)!

×
  
Magnet ссылка

Донбасс / Donbass (Сергей Лозница) [2018, драма, WEBRip 1080p] [Ukr, Rus] piratbit.org

Донбасс через торрент piratbit.org

Размер: 3.7 GB | Добавлен: 2 года назад | Торрент скачан:183 раза
Скачать  

02-02-2019 08:48 Донбасс Скачать торрент  

Донбасс / Donbass
скриншот  
Год выпуска: 2018
Страна: Германия, Украина, Франция, Нидерланды, Румыния
Жанр: драма
Продолжительность: 01:56:30
Язык: Украинский, русский

Режиссер: Сергей Лозница

В ролях: Валериу Андрюцэ, Наталья Бузько, Евгений Чистяков, Георгий Делиев, Vadim Dubovsky, Константин Итунин, Борис Каморзин, Сергей Колесов, Svetlana Kolesova, Торстен Мертен

Описание: In eastern Ukraine, society begins to degrade as the effects of propaganda and manipulation begin to surface in this post-truth era.

rating

Качество: WEBRip 1080p
Формат: MKV
Аудио: AAC
Видео: AVC, 1920х1080, 25 fps, ~5000 kbps avg
Аудио: 44.1 kHz, AAC, 2 ch, ~174 kbps
General
Complete name : F:\Данбас.mp4
Format : MPEG-4
Format profile : Base Media
Codec ID : isom (isom/iso2/avc1/mp41)
File size : 3.70 GiB
Duration : 1 h 56 min
Overall bit rate mode : Variable
Overall bit rate : 4 541 kb/s

Video
ID : 2
Format : AVC
Format/Info : Advanced Video Codec
Format profile : High@L4
Format settings : CABAC / 4 Ref Frames
Format settings, CABAC : Yes
Format settings, RefFrames : 4 frames
Codec ID : avc1
Codec ID/Info : Advanced Video Coding
Duration : 1 h 56 min
Source duration : 1 h 56 min
Bit rate : 4 358 kb/s
Nominal bit rate : 5 000 kb/s
Width : 1 912 pixels
Original width : 1 920 pixels
Height : 1 088 pixels
Original height : 1 080 pixels
Display aspect ratio : 16:9
Frame rate mode : Variable
Frame rate : 25.000 FPS
Minimum frame rate : 5.000 FPS
Maximum frame rate : 100.000 FPS
Color space : YUV
Chroma subsampling : 4:2:0
Bit depth : 8 bits
Scan type : Progressive
Bits/(Pixel*Frame) : 0.084
Stream size : 3.55 GiB (96%)
Source stream size : 3.55 GiB (96%)
Writing library : x264 core 129 r2245 bc13772
Encoding settings : cabac=1 / ref=3 / deblock=1:0:0 / analyse=0x3:0x113 / me=hex / subme=7 / psy=1 / psy_rd=1.00:0.00 / mixed_ref=1 / me_range=16 / chroma_me=1 / trellis=1 / 8x8dct=1 / cqm=0 / deadzone=21,11 / fast_pskip=1 / chroma_qp_offset=-2 / threads=36 / lookahead_threads=6 / sliced_threads=0 / nr=0 / decimate=1 / interlaced=0 / bluray_compat=0 / constrained_intra=0 / bframes=3 / b_pyramid=2 / b_adapt=1 / b_bias=0 / direct=1 / weightb=1 / open_gop=0 / weightp=2 / keyint=100 / keyint_min=51 / scenecut=0 / intra_refresh=0 / rc_lookahead=40 / rc=abr / mbtree=1 / bitrate=5000 / ratetol=1.0 / qcomp=0.60 / qpmin=0 / qpmax=40 / qpstep=4 / vbv_maxrate=5500 / vbv_bufsize=5500 / nal_hrd=none / ip_ratio=1.40 / aq=1:1.00
Color range : Full
mdhd_Duration : 6989840

Audio
ID : 1
Format : AAC
Format/Info : Advanced Audio Codec
Format profile : LC
Codec ID : mp4a-40-2
Duration : 1 h 56 min
Bit rate mode : Variable
Bit rate : 174 kb/s
Maximum bit rate : 219 kb/s
Channel(s) : 2 channels
Channel positions : Front: L R
Sampling rate : 44.1 kHz
Frame rate : 43.066 FPS (1024 SPF)
Compression mode : Lossy
Stream size : 145 MiB (4%)
скриншот   скриншот   скриншот   скриншот   скриншот  
piratbit.org



Скачать Донбасс через торрент https://i106.fastpic.ru/big/2019/0202/40/4310ca09d0c2c10ba8d09e158d190d40.jpg Скачать фильм Донбасс через торрент бесплантно в хорошем качестве Описание: In eastern Ukraine, society begins to degrade as the effects of propaganda and manipulation begin to surface in this post-truth ... 7.2 10 20
Info! Золотая раздача, скачанное не засчитывается.
Торрент: Зарегистрирован [2019-02-02 08:48] · скачан: 183 раз
Статус: T временная
Размер: 3.7 GB
Как cкачать? Как скачать Донбасс через торрент | UTorrent

% Раздел Тема Автор DL S | L
Фильмы с украинским озвучиванием [ 2.05 GB ] Донбасс / Donbass [2018 HDRip] [Ukr Rus] [] killermax2013 Скачать
1 | 0

28-11-2019 20:33  

Отключить всю рекламу на сайте

    Дорогой пользователь! Огромная просьба, поблагодарите релизера, оцените раздачу и оставьте свои комментарий, если Вы скачали Донбасс через торрент бесплатно! Внесите свою лепту в развитие PiratBit!
    Комментировать посты могут только пользователи прошедшие не сложную регистрацию
    Показать сообщения:    

    Донбасс через торрент
    Скачать бесплатно Донбасс
    Донбасс скачать торрент
    Донбасс смотреть онлайн
    Cкачать фильм Донбасс бесплатно
    Донбасс скачать торрент в хорошем качестве
    Донбасс смотреть онлайн бесплатно в хорошем качестве


    Вы не можете начинать темы
    Вы не можете отвечать на сообщения
    Вы не можете редактировать свои сообщения
    Вы не можете удалять свои сообщения
    Вы не можете голосовать в опросах
    Вы не можете прикреплять файлы к сообщениям
    Вы можете скачивать файлы