Достать ножи: Стеклянная луковица

MVO

Добыча

Дубляж

Уэнсдэй

1 сезон

Тор

Дубляж

13 клиническая

1 сезон

Жестокая ночь

MVO

Одни из нас

1 сезон

Deluxe

pack

Рекомендуем

30

Пиратка

ВАЖНО

ВАЖНО

Ghostwire

Пиратка

jed

RePack

nioh2

RePack

RDR2

RePack

NEED FOR SPEED™ PAYBACK

RePack

скачать торрент

Кинопоиск HD

Острые козырьки 6 сезон

6 сезон

FAR CRY 6

RePack

скачать торрент

Лицензия

скачать торрент

MVO

1

1 сезон

скачать торрент

1 сезон

скачать торрент

Лицензия

  

День сурка / Groundhog Day (Харольд Рэмис) [1993, фэнтези, мелодрама, комедия, UHD BDRip 2160p] Дубляж + 3xMVO + 2xAVO

День сурка через торрент piratbit.org

Размер: 30.47 GB | Добавлен: 4 года назад | Торрент скачан:24 раза
Смотреть онлайн | Скачать | Поддержите нас   

03-02-2019 15:22 День сурка Скачать торрент  

День сурка / Groundhog Day«Это худший день в вашей жизни. Может быть, пережить его снова?»

Год выпуска: 1993
Страна: США
Жанр: фэнтези, мелодрама, комедия
Продолжительность: 01:41:04
Перевод: Дублированный, профессиональный многоголосый, авторский
Субтитры: Русские, английские, испанские, французские, немецкие, португальские, румынские, итальянские, норвежские, датские, финские, турецкие, исландские, чешские, польские, японские, китайские, тайские, корейские, арабские
Режиссер: Харольд Рэмис
В ролях:

Билл Мюррей (Phil), Энди МакДауэлл (Rita), Крис Эллиот (Larry), Стивен Тоболовски (Ned), Брайан Дойл-Мюррей (Buster), Марита Герати (Nancy), Анджела Пэтон (Mrs. Lancaster), Рик Дукомман (Gus), Рик Овертон (Ralph), Робин Дьюк (Doris the Waitress), Кэрол Бивинс (Anchorwoman), Уилли Гарсон (Phil's Assistant Kenny)
Описание:
Телевизионный комментатор Фил Коннорс каждый год приезжает в маленький городок в штате Пенсильвания на празднование Дня сурка. Но на этот раз веселье рискует зайти слишком далеко. Время сыграло с ним злую шутку: оно взяло да и остановилось.
Рейтинг:

MPAA: PG - Рекомендуется присутствие родителей
Качество: UHD BDRip 2160p
Формат: MKV
Видео: HEVC HDR, 35.6 Мбит/с, 3840x2076, 23.976 кадр/с
Перевод #01: (AC3, 2 ch, 192 Кбит/с) Профессиональный (дублированный) Ленфильм [имеются вставки ПМ]
Перевод #02: (AC3, 6 ch, 384 Кбит/с) Профессиональный (многоголосый, закадровый) ВидеоСервис
Перевод #03: (AC3, 6 ch, 384 Кбит/с) Профессиональный (многоголосый, закадровый) ОРТ
Перевод #04: (AC3, 2 ch, 192 Кбит/с) Профессиональный (многоголосый, закадровый) РТР
Перевод #05: (AC3, 2 ch, 192 Кбит/с) Авторский (одноголосый, закадровый) Юрий Живов
Перевод #06: (AC3, 6 ch, 384 Кбит/с) Авторский (одноголосый, закадровый) Андрей Гаврилов
Перевод #07: (TrueHD, 8 ch, 4735 Кбит/с) Оригинал
Перевод #08: (AC3, 6 ch, 640 Кбит/с) Оригинал
Навигация по главам: есть

Британская академия, 1994 год
Победитель:
• Лучший оригинальный сценарий

Сатурн, 1994 год
Победитель:
• Лучшая актриса (Энди МакДауэлл)
Номинации:
• Лучший фэнтези-фильм
• Лучший режиссер (Харольд Рэмис)
• Лучший актер (Билл Мюррей)
• Лучший сценарий
• Лучшие костюмы

Премия канала «MTV», 1993 год
Номинации:
• Лучшая комедийная роль (Билл Мюррей)
►Режиссёр Гарольд Рамис планировал пригласить Тома Хэнкса на роль Фила Коннорса, но потом счёл, что тот «слишком милый» для этой роли.
►Во время съёмок картины Билл Мюррей был дважды укушен сурком.
►Хотя, по утверждению режиссёра Гарольда Рамиса, Фил прожил в дне сурка около 10 лет, прежде чем разорвал петлю времени, в фильме показано лишь 34 дня сурка (а всего было отснято 40).
►Фильм снимался в городе Вудсток (штат Иллинойс) и его окрестностях. На том месте, где находилась лужа, в которую неизменно проваливалась нога главного героя, теперь находится мемориальная табличка со словами «Сюда ступал Билл Мюррей».
►Колокольня, с которой Коннорс прыгает вниз в одной из сцен, расположена на здании местного оперного театра. Согласно городскому поверью, с тех пор, как с этой самой колокольни бросилась вниз юная девушка, её призрак незримо обитает в театральном здании.
►Сценарист Дэнни Рубин изначально планировал, чтобы фильм открывался сценой с Филом, который уже «застрял» в дне сурка. А вся предыстория была бы рассказана по ходу фильма. Рамис вначале обещал так и сделать, но потом изменил решение.
►По первоначальному замыслу, злоключения Фила Коннорса начались из-за того, что его прокляла бывшая подружка, которую тот безжалостно бросил. Но по ходу доработки сценария эта деталь была исключена.
►Рамис утверждал, что почти всякий раз, когда он пытался объяснить Мюррею смысл сцены, тот перебивал его и спрашивал: «Ты мне только скажи — хороший Фил или плохой Фил?»
►В процессе обучения игре на фортепиано Фил играет «Рапсодию на тему Паганини» Рахманинова. Эта романтическая тема также использована в другом фантастическом фильме, «Где-то во времени» (1980). Первые робкие удары по клавишам во время самого первого урока Билл Мюррей делает самостоятельно. Не владея нотной грамотой, он подобрал мелодию на слух.
►Биллу Мюррею и Гарольду Рамису выпала высокая честь быть Почётными великими маршалами одного из Дней сурка, проходивших в Панксатони.
►Зажигательная песня «Метеоролог» («Weatherman»), звучащая в фильме, сочинена совместно Гарольдом Рамисом и Джорджем Фэнтоном.
►Съёмки сцены, в которой раздражённый Фил вдребезги разбивает будильник, прошли не так, как ожидалось: от удара Мюррея он едва треснул, так что съёмочной группе пришлось нанести завершающий удар молотком. Несмотря ни на что (и это вошло в фильм), звук из будильника так и продолжал звучать.
►Песня, под которую Фил просыпается каждое утро 2 февраля — это «I Got You Babe» в исполнении дуэта «Сонни и Шер», популярный хит августа 1965 года, культовый в среде хиппи.
►Сюжет во многом напоминает фильм «Двенадцать ноль одна пополуночи», снятый также в 1993 году, что вызвало 6-месячные судебные разбирательства.
►Название фильма стало в некотором роде нарицательным. «День сурка» означает один и тот же повторяющийся день или даже несколько дней нескончаемо вращающихся в так называемой «петле времени». Этот ход сейчас используется во многих кинофильмах, сценариях и фантастических литературных сюжетах.
\Groundhog.Day.1993.2160p.UHD.BluRay.X265-IAMABLE.mkv
Format : Matroska
Format version : Version 4 / Version 2
File size : 30.5 GiB
Duration : 1 h 41 min
Overall bit rate mode : Variable
Overall bit rate : 43.2 Mb/s
Encoded date : UTC 2018-01-31 17:00:32
Writing application : mkvmerge v20.0.0 ('I Am The Sun') 64-bit
Writing library : libebml v1.3.5 + libmatroska v1.4.8

Video
ID : 1
Format : HEVC
Format/Info : High Efficiency Video Coding
Format profile : Main 10@L5.1@High
Codec ID : V_MPEGH/ISO/HEVC
Duration : 1 h 41 min
Bit rate : 35.6 Mb/s
Width : 3 840 pixels
Height : 2 076 pixels
Display aspect ratio : 1.85:1
Frame rate mode : Constant
Frame rate : 23.976 (24000/1001) FPS
Color space : YUV
Chroma subsampling : 4:2:0 (Type 2)
Bit depth : 10 bits
Bits/(Pixel*Frame) : 0.186
Stream size : 25.1 GiB (82%)
Writing library : x265 2.6+4-f7498acb3874:[Windows][GCC 7.2.0][64 bit] 10bit
Encoding settings : cpuid=1173503 / frame-threads=4 / numa-pools=16 / wpp / no-pmode / no-pme / no-psnr / no-ssim / log-level=2 / input-csp=1 / input-res=3840x2076 / interlace=0 / total-frames=145392 / level-idc=51 / high-tier=1 / uhd-bd=0 / ref=4 / no-allow-non-conformance / repeat-headers / annexb / aud / hrd / info / hash=0 / no-temporal-layers / no-open-gop / min-keyint=24 / keyint=240 / bframes=4 / b-adapt=2 / b-pyramid / bframe-bias=0 / rc-lookahead=25 / lookahead-slices=4 / scenecut=40 / no-intra-refresh / ctu=64 / min-cu-size=8 / rect / no-amp / max-tu-size=32 / tu-inter-depth=1 / tu-intra-depth=1 / limit-tu=0 / rdoq-level=2 / dynamic-rd=0.00 / no-ssim-rd / signhide / no-tskip / nr-intra=0 / nr-inter=0 / no-constrained-intra / no-strong-intra-smoothing / max-merge=3 / limit-refs=3 / limit-modes / me=3 / subme=3 / merange=57 / temporal-mvp / weightp / no-weightb / no-analyze-src-pics / deblock=-3:-3 / no-sao / no-sao-non-deblock / rd=4 / no-early-skip / rskip / no-fast-intra / no-tskip-fast / no-cu-lossless / no-b-intra / no-splitrd-skip / rdpenalty=0 / psy-rd=2.00 / psy-rdoq=1.00 / no-rd-refine / analysis-reuse-mode=0 / no-lossless / cbqpoffs=0 / crqpoffs=0 / rc=crf / crf=19.0 / qcomp=0.60 / qpstep=4 / stats-write=0 / stats-read=0 / vbv-maxrate=160000 / vbv-bufsize=160000 / vbv-init=0.9 / crf-max=0.0 / crf-min=0.0 / ipratio=1.40 / pbratio=1.30 / aq-mode=1 / aq-strength=1.00 / cutree / zone-count=0 / no-strict-cbr / qg-size=32 / no-rc-grain / qpmax=69 / qpmin=0 / no-const-vbv / sar=1 / overscan=0 / videoformat=5 / range=0 / colorprim=9 / transfer=16 / colormatrix=9 / chromaloc=1 / chromaloc-top=2 / chromaloc-bottom=2 / display-window=0 / master-display=G(13250,34500)B(7500,3000)R(34000,16000)WP(15635,16450)L(40000000,50) / max-cll=10000,258 / min-luma=0 / max-luma=1023 / log2-max-poc-lsb=8 / vui-timing-info / vui-hrd-info / slices=1 / opt-qp-pps / opt-ref-list-length-pps / no-multi-pass-opt-rps / scenecut-bias=0.05 / no-opt-cu-delta-qp / no-aq-motion / hdr / hdr-opt / no-dhdr10-opt / analysis-reuse-level=5 / scale-factor=0 / refine-intra=0 / refine-inter=0 / refine-mv=0 / no-limit-sao / ctu-info=0 / no-lowpass-dct / refine-mv-type=0 / copy-pic=1
Default : Yes
Forced : No
Color range : Limited
Color primaries : BT.2020
Transfer characteristics : PQ
Matrix coefficients : BT.2020 non-constant
Mastering display color pri : Display P3
Mastering display luminance : min: 0.0050 cd/m2, max: 4000 cd/m2
Maximum Content Light Level : 10000 cd/m2
Maximum Frame-Average Light : 258 cd/m2

Audio #1
ID : 2
Format : AC-3
Format/Info : Audio Coding 3
Codec ID : A_AC3
Duration : 1 h 41 min
Bit rate mode : Constant
Bit rate : 192 kb/s
Channel(s) : 2 channels
Channel positions : Front: L R
Sampling rate : 48.0 kHz
Frame rate : 31.250 FPS (1536 SPF)
Bit depth : 16 bits
Compression mode : Lossy
Stream size : 139 MiB (0%)
Title : Дубляж
Language : Russian
Service kind : Complete Main
Default : No
Forced : No

Audio #2
ID : 3
Format : AC-3
Format/Info : Audio Coding 3
Codec ID : A_AC3
Duration : 1 h 41 min
Bit rate mode : Constant
Bit rate : 384 kb/s
Channel(s) : 6 channels
Channel positions : Front: L C R, Side: L R, LFE
Sampling rate : 48.0 kHz
Frame rate : 31.250 FPS (1536 SPF)
Bit depth : 16 bits
Compression mode : Lossy
Stream size : 278 MiB (1%)
Title : ВидеоСервис
Language : Russian
Service kind : Complete Main
Default : Yes
Forced : Yes

Audio #3
ID : 4
Format : AC-3
Format/Info : Audio Coding 3
Codec ID : A_AC3
Duration : 1 h 41 min
Bit rate mode : Constant
Bit rate : 384 kb/s
Channel(s) : 6 channels
Channel positions : Front: L C R, Side: L R, LFE
Sampling rate : 48.0 kHz
Frame rate : 31.250 FPS (1536 SPF)
Bit depth : 16 bits
Compression mode : Lossy
Stream size : 278 MiB (1%)
Title : ОРТ
Language : Russian
Service kind : Complete Main
Default : No
Forced : No

Audio #4
ID : 5
Format : AC-3
Format/Info : Audio Coding 3
Codec ID : A_AC3
Duration : 1 h 41 min
Bit rate mode : Constant
Bit rate : 192 kb/s
Channel(s) : 2 channels
Channel positions : Front: L R
Sampling rate : 48.0 kHz
Frame rate : 31.250 FPS (1536 SPF)
Bit depth : 16 bits
Compression mode : Lossy
Stream size : 139 MiB (0%)
Title : РТР
Language : Russian
Service kind : Complete Main
Default : No
Forced : No

Audio #5
ID : 6
Format : AC-3
Format/Info : Audio Coding 3
Codec ID : A_AC3
Duration : 1 h 41 min
Bit rate mode : Constant
Bit rate : 384 kb/s
Channel(s) : 6 channels
Channel positions : Front: L C R, Side: L R, LFE
Sampling rate : 48.0 kHz
Frame rate : 31.250 FPS (1536 SPF)
Bit depth : 16 bits
Compression mode : Lossy
Stream size : 278 MiB (1%)
Title : Андрей Гаврилов
Language : Russian
Service kind : Complete Main
Default : No
Forced : No

Audio #6
ID : 7
Format : AC-3
Format/Info : Audio Coding 3
Codec ID : A_AC3
Duration : 1 h 41 min
Bit rate mode : Constant
Bit rate : 192 kb/s
Channel(s) : 2 channels
Channel positions : Front: L R
Sampling rate : 48.0 kHz
Frame rate : 31.250 FPS (1536 SPF)
Bit depth : 16 bits
Compression mode : Lossy
Stream size : 139 MiB (0%)
Title : Юрий Живов
Language : Russian
Service kind : Complete Main
Default : No
Forced : No

Audio #7
ID : 8
Format : TrueHD
Format profile : TrueHD+Atmos / TrueHD
Codec ID : A_TRUEHD
Duration : 1 h 41 min
Bit rate mode : Variable
Bit rate : 4 735 kb/s
Maximum bit rate : 7 296 kb/s
Channel(s) : Object Based / 8 channels
Channel positions : Object Based / Front: L C R, Side: L R, Back: L R, LFE
Sampling rate : / 48.0 kHz
Frame rate : 1 200.000 FPS (40 SPF)
Compression mode : Lossless
Stream size : 3.34 GiB (11%)
Title : Atmos
Language : English
Default : No
Forced : No

Audio #8
ID : 9
Format : AC-3
Format/Info : Audio Coding 3
Codec ID : A_AC3
Duration : 1 h 41 min
Bit rate mode : Constant
Bit rate : 640 kb/s
Channel(s) : 6 channels
Channel positions : Front: L C R, Side: L R, LFE
Sampling rate : 48.0 kHz
Frame rate : 31.250 FPS (1536 SPF)
Bit depth : 16 bits
Compression mode : Lossy
Stream size : 463 MiB (1%)
Title : AC3 5.1
Language : English
Service kind : Complete Main
Default : No
Forced : No

Text #1
ID : 10
Format : PGS
Muxing mode : zlib
Codec ID : S_HDMV/PGS
Codec ID/Info : Picture based subtitle format used on BDs/HD-DVDs
Duration : 1 h 40 min
Bit rate : 48.1 kb/s
Count of elements : 2668
Stream size : 34.4 MiB (0%)
Title : Full
Language : Russian
Default : Yes
Forced : Yes

Text #2
ID : 11
Format : UTF-8
Codec ID : S_TEXT/UTF8
Codec ID/Info : UTF-8 Plain Text
Duration : 1 h 40 min
Bit rate : 73 b/s
Count of elements : 1552
Stream size : 53.9 KiB (0%)
Title : Stripped SRT (US)
Language : English
Default : No
Forced : No

Text #3
ID : 12
Format : UTF-8
Codec ID : S_TEXT/UTF8
Codec ID/Info : UTF-8 Plain Text
Duration : 1 h 40 min
Bit rate : 73 b/s
Count of elements : 1552
Stream size : 53.9 KiB (0%)
Title : Stripped SRT (UK)
Language : English
Default : No
Forced : No

Text #4
ID : 13
Format : UTF-8
Codec ID : S_TEXT/UTF8
Codec ID/Info : UTF-8 Plain Text
Duration : 1 h 37 min
Bit rate : 62 b/s
Count of elements : 1334
Stream size : 44.6 KiB (0%)
Title : Full SRT (US)
Language : English
Default : No
Forced : No

Text #5
ID : 14
Format : PGS
Muxing mode : zlib
Codec ID : S_HDMV/PGS
Codec ID/Info : Picture based subtitle format used on BDs/HD-DVDs
Duration : 1 h 37 min
Bit rate : 35.8 kb/s
Count of elements : 2669
Stream size : 24.9 MiB (0%)
Title : Full (US)
Language : English
Default : No
Forced : No

Text #6
ID : 15
Format : UTF-8
Codec ID : S_TEXT/UTF8
Codec ID/Info : UTF-8 Plain Text
Duration : 1 h 37 min
Bit rate : 62 b/s
Count of elements : 1335
Stream size : 44.7 KiB (0%)
Title : Full SRT (UK)
Language : English
Default : No
Forced : No

Text #7
ID : 16
Format : PGS
Muxing mode : zlib
Codec ID : S_HDMV/PGS
Codec ID/Info : Picture based subtitle format used on BDs/HD-DVDs
Duration : 1 h 37 min
Bit rate : 35.9 kb/s
Count of elements : 2671
Stream size : 24.9 MiB (0%)
Title : Full (UK)
Language : English
Default : No
Forced : No

Text #8
ID : 17
Format : UTF-8
Codec ID : S_TEXT/UTF8
Codec ID/Info : UTF-8 Plain Text
Duration : 1 h 40 min
Bit rate : 77 b/s
Count of elements : 1700
Stream size : 57.3 KiB (0%)
Title : SDH SRT (US)
Language : English
Default : No
Forced : No

Text #9
ID : 18
Format : PGS
Muxing mode : zlib
Codec ID : S_HDMV/PGS
Codec ID/Info : Picture based subtitle format used on BDs/HD-DVDs
Duration : 1 h 40 min
Bit rate : 43.9 kb/s
Count of elements : 3403
Stream size : 31.7 MiB (0%)
Title : SDH (US)
Language : English
Default : No
Forced : No

Text #10
ID : 19
Format : UTF-8
Codec ID : S_TEXT/UTF8
Codec ID/Info : UTF-8 Plain Text
Duration : 1 h 40 min
Bit rate : 77 b/s
Count of elements : 1700
Stream size : 57.4 KiB (0%)
Title : SDH SRT (UK)
Language : English
Default : No
Forced : No

Text #11
ID : 20
Format : PGS
Muxing mode : zlib
Codec ID : S_HDMV/PGS
Codec ID/Info : Picture based subtitle format used on BDs/HD-DVDs
Duration : 1 h 40 min
Bit rate : 43.9 kb/s
Count of elements : 3403
Stream size : 31.7 MiB (0%)
Title : SDH (UK)
Language : English
Default : No
Forced : No

Text #12
ID : 21
Format : PGS
Muxing mode : zlib
Codec ID : S_HDMV/PGS
Codec ID/Info : Picture based subtitle format used on BDs/HD-DVDs
Duration : 1 h 40 min
Bit rate : 34.6 kb/s
Count of elements : 2697
Stream size : 24.8 MiB (0%)
Language : French
Default : No
Forced : No

Text #13
ID : 22
Format : PGS
Muxing mode : zlib
Codec ID : S_HDMV/PGS
Codec ID/Info : Picture based subtitle format used on BDs/HD-DVDs
Duration : 1 h 37 min
Bit rate : 27.5 kb/s
Count of elements : 2646
Stream size : 19.1 MiB (0%)
Language : Spanish
Default : No
Forced : No

Text #14
ID : 23
Format : PGS
Muxing mode : zlib
Codec ID : S_HDMV/PGS
Codec ID/Info : Picture based subtitle format used on BDs/HD-DVDs
Duration : 1 h 40 min
Bit rate : 29.8 kb/s
Count of elements : 2690
Stream size : 21.3 MiB (0%)
Language : Spanish
Default : No
Forced : No

Text #15
ID : 24
Format : PGS
Muxing mode : zlib
Codec ID : S_HDMV/PGS
Codec ID/Info : Picture based subtitle format used on BDs/HD-DVDs
Duration : 1 h 40 min
Bit rate : 33.0 kb/s
Count of elements : 2688
Stream size : 23.7 MiB (0%)
Language : Portuguese
Default : No
Forced : No

Text #16
ID : 25
Format : PGS
Muxing mode : zlib
Codec ID : S_HDMV/PGS
Codec ID/Info : Picture based subtitle format used on BDs/HD-DVDs
Duration : 1 h 37 min
Bit rate : 34.8 kb/s
Count of elements : 2683
Stream size : 24.2 MiB (0%)
Language : Portuguese
Default : No
Forced : No

Text #17
ID : 26
Format : PGS
Muxing mode : zlib
Codec ID : S_HDMV/PGS
Codec ID/Info : Picture based subtitle format used on BDs/HD-DVDs
Duration : 1 h 37 min
Bit rate : 34.3 kb/s
Count of elements : 2756
Stream size : 23.8 MiB (0%)
Language : Italian
Default : No
Forced : No

Text #18
ID : 27
Format : PGS
Muxing mode : zlib
Codec ID : S_HDMV/PGS
Codec ID/Info : Picture based subtitle format used on BDs/HD-DVDs
Duration : 1 h 37 min
Bit rate : 38.4 kb/s
Count of elements : 2699
Stream size : 26.7 MiB (0%)
Language : German
Default : No
Forced : No

Text #19
ID : 28
Format : PGS
Muxing mode : zlib
Codec ID : S_HDMV/PGS
Codec ID/Info : Picture based subtitle format used on BDs/HD-DVDs
Duration : 1 h 37 min
Bit rate : 29.8 kb/s
Count of elements : 2035
Stream size : 20.7 MiB (0%)
Language : Dutch
Default : No
Forced : No

Text #20
ID : 29
Format : PGS
Muxing mode : zlib
Codec ID : S_HDMV/PGS
Codec ID/Info : Picture based subtitle format used on BDs/HD-DVDs
Duration : 1 h 37 min
Bit rate : 28.2 kb/s
Count of elements : 1616
Stream size : 19.6 MiB (0%)
Language : Swedish
Default : No
Forced : No

Text #21
ID : 30
Format : PGS
Muxing mode : zlib
Codec ID : S_HDMV/PGS
Codec ID/Info : Picture based subtitle format used on BDs/HD-DVDs
Duration : 1 h 37 min
Bit rate : 30.0 kb/s
Count of elements : 2133
Stream size : 20.8 MiB (0%)
Language : Norwegian
Default : No
Forced : No

Text #22
ID : 31
Format : PGS
Muxing mode : zlib
Codec ID : S_HDMV/PGS
Codec ID/Info : Picture based subtitle format used on BDs/HD-DVDs
Duration : 1 h 37 min
Bit rate : 32.0 kb/s
Count of elements : 2093
Stream size : 22.2 MiB (0%)
Language : Danish
Default : No
Forced : No

Text #23
ID : 32
Format : PGS
Muxing mode : zlib
Codec ID : S_HDMV/PGS
Codec ID/Info : Picture based subtitle format used on BDs/HD-DVDs
Duration : 1 h 40 min
Bit rate : 28.9 kb/s
Count of elements : 2132
Stream size : 20.7 MiB (0%)
Language : Finnish
Default : No
Forced : No

Text #24
ID : 33
Format : PGS
Muxing mode : zlib
Codec ID : S_HDMV/PGS
Codec ID/Info : Picture based subtitle format used on BDs/HD-DVDs
Duration : 1 h 37 min
Bit rate : 33.6 kb/s
Count of elements : 2722
Stream size : 23.3 MiB (0%)
Language : Icelandic
Default : No
Forced : No

Text #25
ID : 34
Format : PGS
Muxing mode : zlib
Codec ID : S_HDMV/PGS
Codec ID/Info : Picture based subtitle format used on BDs/HD-DVDs
Duration : 1 h 37 min
Bit rate : 28.4 kb/s
Count of elements : 2698
Stream size : 19.7 MiB (0%)
Language : Czech
Default : No
Forced : No

Text #26
ID : 35
Format : PGS
Muxing mode : zlib
Codec ID : S_HDMV/PGS
Codec ID/Info : Picture based subtitle format used on BDs/HD-DVDs
Duration : 1 h 37 min
Bit rate : 28.9 kb/s
Count of elements : 2562
Stream size : 20.1 MiB (0%)
Language : Polish
Default : No
Forced : No

Text #27
ID : 36
Format : PGS
Muxing mode : zlib
Codec ID : S_HDMV/PGS
Codec ID/Info : Picture based subtitle format used on BDs/HD-DVDs
Duration : 1 h 37 min
Bit rate : 32.2 kb/s
Count of elements : 2748
Stream size : 22.3 MiB (0%)
Language : Hungarian
Default : No
Forced : No

Text #28
ID : 37
Format : PGS
Muxing mode : zlib
Codec ID : S_HDMV/PGS
Codec ID/Info : Picture based subtitle format used on BDs/HD-DVDs
Duration : 1 h 40 min
Bit rate : 32.3 kb/s
Count of elements : 2692
Stream size : 23.2 MiB (0%)
Language : Romanian
Default : No
Forced : No

Text #29
ID : 38
Format : PGS
Muxing mode : zlib
Codec ID : S_HDMV/PGS
Codec ID/Info : Picture based subtitle format used on BDs/HD-DVDs
Duration : 1 h 37 min
Bit rate : 33.1 kb/s
Count of elements : 2644
Stream size : 23.1 MiB (0%)
Language : Greek
Default : No
Forced : No

Text #30
ID : 39
Format : PGS
Muxing mode : zlib
Codec ID : S_HDMV/PGS
Codec ID/Info : Picture based subtitle format used on BDs/HD-DVDs
Duration : 1 h 37 min
Bit rate : 33.1 kb/s
Count of elements : 2661
Stream size : 23.0 MiB (0%)
Language : Turkish
Default : No
Forced : No

Text #31
ID : 40
Format : PGS
Muxing mode : zlib
Codec ID : S_HDMV/PGS
Codec ID/Info : Picture based subtitle format used on BDs/HD-DVDs
Duration : 1 h 40 min
Bit rate : 18.2 kb/s
Count of elements : 2660
Stream size : 13.0 MiB (0%)
Language : Arabic
Default : No
Forced : No

Text #32
ID : 41
Format : PGS
Muxing mode : zlib
Codec ID : S_HDMV/PGS
Codec ID/Info : Picture based subtitle format used on BDs/HD-DVDs
Duration : 1 h 37 min
Bit rate : 24.1 kb/s
Count of elements : 2375
Stream size : 16.7 MiB (0%)
Language : Japanese
Default : No
Forced : No

Text #33
ID : 42
Format : PGS
Muxing mode : zlib
Codec ID : S_HDMV/PGS
Codec ID/Info : Picture based subtitle format used on BDs/HD-DVDs
Duration : 1 h 37 min
Bit rate : 31.3 kb/s
Count of elements : 2734
Stream size : 21.8 MiB (0%)
Language : Chinese
Default : No
Forced : No

Text #34
ID : 43
Format : PGS
Muxing mode : zlib
Codec ID : S_HDMV/PGS
Codec ID/Info : Picture based subtitle format used on BDs/HD-DVDs
Duration : 1 h 40 min
Bit rate : 30.7 kb/s
Count of elements : 2733
Stream size : 22.0 MiB (0%)
Language : Chinese
Default : No
Forced : No

Text #35
ID : 44
Format : PGS
Muxing mode : zlib
Codec ID : S_HDMV/PGS
Codec ID/Info : Picture based subtitle format used on BDs/HD-DVDs
Duration : 1 h 37 min
Bit rate : 23.8 kb/s
Count of elements : 2767
Stream size : 16.5 MiB (0%)
Language : Korean
Default : No
Forced : No

Text #36
ID : 45
Format : PGS
Muxing mode : zlib
Codec ID : S_HDMV/PGS
Codec ID/Info : Picture based subtitle format used on BDs/HD-DVDs
Duration : 1 h 37 min
Bit rate : 36.8 kb/s
Count of elements : 2689
Stream size : 25.6 MiB (0%)
Language : Thai
Default : No
Forced : No

Menu
00:00:00.000 : en:00:00:00.000
00:07:26.863 : en:00:07:26.863
00:14:12.935 : en:00:14:12.935
00:18:17.221 : en:00:18:17.221
00:24:30.386 : en:00:24:30.386
00:30:43.341 : en:00:30:43.341
00:34:32.821 : en:00:34:32.821
00:41:00.625 : en:00:41:00.625
00:45:54.669 : en:00:45:54.669
00:52:39.823 : en:00:52:39.823
00:59:21.183 : en:00:59:21.183
01:06:08.214 : en:01:06:08.214
01:14:55.658 : en:01:14:55.658
01:19:59.169 : en:01:19:59.169
01:24:11.088 : en:01:24:11.088
01:32:13.778 : en:01:32:13.778



Скачать День сурка через торрент https://a.radikal.ru/a39/1902/8b/7831d67c3d90.png Скачать, смотреть онлайн День сурка бесплантно в хорошем качестве Описание: Телевизионный комментатор Фил Коннорс каждый год приезжает в маленький городок в штате Пенсильвания на празднование Дня сурка. Но ... 10 10 4
Info! Золотая раздача, скачанное не засчитывается.
Торрент: Зарегистрирован [2019-02-03 15:22] · скачан: 24 раз
Статус: √ проверено
Размер: 30.47 GB
Как cкачать? Как скачать День сурка через торрент | UTorrent

28-11-2019 20:33  


Отключить вcю реклaмy на сайте, в т.ч. и в плеере онлайн просмотра!

    Дорогой пользователь! Огромная просьба, поблагодарите релизера, оцените раздачу и оставьте свои комментарий, если Вы скачали День сурка через торрент бесплатно!!
    Комментировать посты могут только пользователи прошедшие не сложную регистрацию
    Показать сообщения:    


    День сурка через торрент
    Скачать бесплатно День сурка
    День сурка скачать торрент
    День сурка смотреть онлайн
    Cкачать фильм День сурка бесплатно
    День сурка скачать торрент в хорошем качестве
    День сурка смотреть онлайн бесплатно в хорошем качестве
    Вы не можете начинать темы
    Вы не можете отвечать на сообщения
    Вы не можете редактировать свои сообщения
    Вы не можете удалять свои сообщения
    Вы не можете голосовать в опросах
    Вы не можете прикреплять файлы к сообщениям
    Вы можете скачивать файлы
    День сурка / Groundhog Day [1993, фэнтези, мелодрама, комедия, UHD BDRip 2160p] Дубляж + 3xMVO + 2xAVO смотреть онлайн, скачать торрент picoco.icu