Достать ножи: Стеклянная луковица

MVO

Добыча

Дубляж

Уэнсдэй

1 сезон

Тор

Дубляж

13 клиническая

1 сезон

Жестокая ночь

MVO

Одни из нас

1 сезон

Deluxe

pack

Рекомендуем

30

Пиратка

ВАЖНО

ВАЖНО

Ghostwire

Пиратка

jed

RePack

nioh2

RePack

RDR2

RePack

NEED FOR SPEED™ PAYBACK

RePack

скачать торрент

Кинопоиск HD

Острые козырьки 6 сезон

6 сезон

FAR CRY 6

RePack

скачать торрент

Лицензия

скачать торрент

MVO

1

1 сезон

скачать торрент

1 сезон

скачать торрент

Лицензия

  

Дэдпул 2 / Deadpool 2 (Дэвид Литч) [2018, фантастика, боевик, комедия, UHD BDRip 2160p] [Расширенная версия] Дубляж

Дэдпул 2 через торрент piratbit.org

Качают: 1 [ 0 KB/s ]
Размер: 22.22 GB | Добавлен: 4 года 5 мес. назад | Торрент скачан:275 раз
Смотреть онлайн | Скачать | Поддержите нас   

20-08-2018 02:40 Дэдпул 2 Скачать торрент  

Дэдпул 2 / Deadpool 2«Беда не приходит одна»
Год выпуска: 2018
Страна: США
Жанр: фантастика, боевик, комедия, приключения
Продолжительность: 02:13:59
Перевод: Дублированный | Лицензия
Субтитры: Русские, английские
Режиссер: Дэвид Литч
В ролях:

Райан Рейнольдс (Wade Wilson / Deadpool / Voice of Juggernaut), Джош Бролин (Cable), Морена Баккарин (Vanessa), Джулиан Деннисон (Firefist), Зази Битц (Domino), ТиДжей Миллер (Weasel), Лесли Аггамс (Blind Al), Каран Сони (Dopinder), Брианна Хилдебранд (Negasonic Teenage Warhead), Джек Кеси (Black Tom), Эдди Марсан (Headmaster), Сиори Куцуна (Yukio)
Описание:
Единственный и неповторимый болтливый наемник - вернулся! Ещё более масштабный, ещё более разрушительный и даже ещё более голозадый, чем прежде! Когда в его жизнь врывается суперсолдат с убийственной миссией, Дэдпул вынужден задуматься о дружбе, семье и о том, что на самом деле значит быть героем, попутно надирая 50 оттенков задниц. Потому что иногда чтобы делать хорошие вещи, нужно использовать грязные приёмчики.
Рейтинг:

MPAA: R - Лицам до 17 лет обязательно присутствие взрослого
Качество: UHD BDRip 2160p
Контейнер: MKV
Видео: HEVC, HDR, 17.3 Mбит/с, 3840x1608, 23.976 Кадр/с
Аудио 1: Русский / DTS / 48 KHz / 5.1 ch / 768 Kbps (Лицензия)
Аудио 2: Русский / AC3 / 48 KHz / 5.1 ch / 448 Kbps (Лицензия)
Аудио 3: Английский / TrueHD / 48 KHz / 7.1 ch / 4461 Kbps (Original)
Аудио 4: Английский / AC3 / 48 KHz / 5.1 ch / 640 Kbps (Original)
Навигация по главам: Есть
Общее
Уникальный идентификатор : 194049116599251473560412861573587343769 (0x91FC801C71F6B972A0D843AF1E751999)
Полное имя : F:\Deadpool.2.2018.Super.Duper.Cut.UNRATED.2160p.UHD.BluRay.10bit.HEVC.HDR.4K.x265.Master5.mkv
Формат : Matroska
Версия формата : Version 4 / Version 2
Размер файла : 22,2 Гбайт
Продолжительность : 2 ч. 13 м.
Режим общего битрейта : Переменный
Общий поток : 23,7 Мбит/сек
Название фильма : Deadpool.2.2018.Super.Duper.Cut.UNRATED.2160p.UHD.BluRay.10bit.HEVC.HDR.4K.x265.Master5
Дата кодирования : UTC 2018-08-19 19:18:58
Программа кодирования : mkvmerge v7.9.0 ('Birds') 64bit
Библиотека кодирования : libebml v1.3.1 + libmatroska v1.4.2
Обложка : Yes
Attachments : cover.png

Видео
Идентификатор : 1
Формат : HEVC
Формат/Информация : High Efficiency Video Coding
Коммерческое название : HDR10
Профиль формата : Main 10@L5.1@High
Идентификатор кодека : V_MPEGH/ISO/HEVC
Продолжительность : 2 ч. 13 м.
Битрейт : 17,3 Мбит/сек
Ширина : 3840 пикселей
Высота : 1608 пикселей
Соотношение сторон : 2,40:1
Режим частоты кадров : Постоянный
Частота кадров : 23,976 (24000/1001) кадра/сек
Цветовое пространство : YUV
Субдискретизация насыщенности : 4:2:0 (Type 2)
Битовая глубина : 10 бит
Бит/(Пиксели*Кадры) : 0.117
Размер потока : 16,2 Гбайт (73%)
Заголовок : Deadpool.2.2018.Super.Duper.Cut.UNRATED.2160p.UHD.BluRay.10bit.HEVC.HDR.4K.x265.Master5
Библиотека кодирования : x265 2.8+10-703eade86b53:[Windows][MSVC 1914][64 bit] 10bit
Настройки программы : cpuid=1111039 / frame-threads=5 / numa-pools=36 / wpp / no-pmode / no-pme / no-psnr / no-ssim / log-level=2 / input-csp=1 / input-res=3840x1608 / interlace=0 / total-frames=192757 / level-idc=51 / high-tier=1 / uhd-bd=0 / ref=4 / no-allow-non-conformance / repeat-headers / annexb / aud / hrd / info / hash=0 / no-temporal-layers / no-open-gop / min-keyint=1 / keyint=24 / gop-lookahead=0 / bframes=4 / b-adapt=2 / b-pyramid / bframe-bias=0 / rc-lookahead=25 / lookahead-slices=4 / scenecut=40 / radl=0 / no-intra-refresh / ctu=64 / min-cu-size=8 / rect / no-amp / max-tu-size=32 / tu-inter-depth=1 / tu-intra-depth=1 / limit-tu=0 / rdoq-level=2 / dynamic-rd=0.00 / no-ssim-rd / signhide / no-tskip / nr-intra=0 / nr-inter=0 / no-constrained-intra / no-strong-intra-smoothing / max-merge=3 / limit-refs=3 / limit-modes / me=3 / subme=3 / merange=57 / temporal-mvp / weightp / no-weightb / no-analyze-src-pics / deblock=-3:-3 / no-sao / no-sao-non-deblock / rd=4 / no-early-skip / rskip / no-fast-intra / no-tskip-fast / no-cu-lossless / no-b-intra / no-splitrd-skip / rdpenalty=0 / psy-rd=2.00 / psy-rdoq=1.00 / no-rd-refine / no-lossless / cbqpoffs=0 / crqpoffs=0 / rc=crf / crf=17.0 / qcomp=0.60 / qpstep=4 / stats-write=0 / stats-read=0 / vbv-maxrate=160000 / vbv-bufsize=160000 / vbv-init=0.9 / crf-max=0.0 / crf-min=0.0 / ipratio=1.40 / pbratio=1.30 / aq-mode=1 / aq-strength=1.00 / cutree / zone-count=0 / no-strict-cbr / qg-size=32 / no-rc-grain / qpmax=69 / qpmin=0 / no-const-vbv / sar=1 / overscan=0 / videoformat=5 / range=0 / colorprim=9 / transfer=16 / colormatrix=9 / chromaloc=1 / chromaloc-top=2 / chromaloc-bottom=2 / display-window=0 / master-display=G(13250,34500)B(7500,3000)R(34000,16000)WP(15635,16450)L(10000000,50) / max-cll=0,0 / min-luma=0 / max-luma=1023 / log2-max-poc-lsb=8 / vui-timing-info / vui-hrd-info / slices=1 / no-opt-qp-pps / no-opt-ref-list-length-pps / no-multi-pass-opt-rps / scenecut-bias=0.05 / no-opt-cu-delta-qp / no-aq-motion / hdr / hdr-opt / no-dhdr10-opt / no-idr-recovery-sei / analysis-reuse-level=5 / scale-factor=0 / refine-intra=0 / refine-inter=0 / refine-mv=0 / no-limit-sao / ctu-info=0 / no-lowpass-dct / refine-mv-type=0 / copy-pic=1 / max-ausize-factor=1.0 / no-dynamic-refine / no-single-sei
Default : Да
Forced : Нет
Цветовой диапазон : Limited
Основные цвета : BT.2020
Характеристики трансфера : PQ
Коэффициенты матрицы : BT.2020 non-constant
MasteringDisplay_ColorPrimaries : Display P3
MasteringDisplay_Luminance : min: 0.0050 cd/m2, max: 1000 cd/m2

Аудио #1
Идентификатор : 2
Формат : DTS
Формат/Информация : Digital Theater Systems
Идентификатор кодека : A_DTS
Продолжительность : 2 ч. 13 м.
Вид битрейта : Постоянный
Битрейт : 768 Кбит/сек
Каналы : 6 каналов
Расположение каналов : Front: L C R, Side: L R, LFE
Частота : 48,0 КГц
Частота кадров : 93,750 кадра/сек (512 SPF)
Битовая глубина : 24 бит
Метод сжатия : С потерями
Размер потока : 736 Мбайт (3%)
Заголовок : Дубляж
Язык : Russian
Default : Да
Forced : Да

Аудио #2
Идентификатор : 3
Формат : AC-3
Формат/Информация : Audio Coding 3
Идентификатор кодека : A_AC3
Продолжительность : 2 ч. 13 м.
Вид битрейта : Постоянный
Битрейт : 448 Кбит/сек
Каналы : 6 каналов
Расположение каналов : Front: L C R, Side: L R, LFE
Частота : 48,0 КГц
Частота кадров : 31,250 кадров/сек (1536 SPF)
Битовая глубина : 16 бит
Метод сжатия : С потерями
Размер потока : 429 Мбайт (2%)
Заголовок : Дубляж
Язык : Russian
ServiceKind/String : Complete Main
Default : Нет
Forced : Нет

Аудио #3
Идентификатор : 4
Формат : TrueHD
Профиль формата : TrueHD+Atmos / TrueHD
Идентификатор кодека : A_TRUEHD
Продолжительность : 2 ч. 13 м.
Вид битрейта : Переменный
Битрейт : 4461 Кбит/сек
Максимальный битрейт : 7485 Кбит/сек
Каналы : Object Based / 8 каналов
Расположение каналов : Object Based / Front: L C R, Side: L R, Back: L R, LFE
Частота : / 48,0 КГц
Частота кадров : 1200,000 кадров/сек (40 SPF)
Метод сжатия : Без потерь
Размер потока : 4,18 Гбайт (19%)
Язык : English
Default : Нет
Forced : Нет

Аудио #4
Идентификатор : 5
Формат : AC-3
Формат/Информация : Audio Coding 3
Идентификатор кодека : A_AC3
Продолжительность : 2 ч. 13 м.
Вид битрейта : Постоянный
Битрейт : 640 Кбит/сек
Каналы : 6 каналов
Расположение каналов : Front: L C R, Side: L R, LFE
Частота : 48,0 КГц
Частота кадров : 31,250 кадров/сек (1536 SPF)
Битовая глубина : 16 бит
Метод сжатия : С потерями
Размер потока : 613 Мбайт (3%)
Язык : English
ServiceKind/String : Complete Main
Default : Нет
Forced : Нет

Текст #1
Идентификатор : 6
Формат : UTF-8
Идентификатор кодека : S_TEXT/UTF8
Идентификатор кодека/Информация : UTF-8 Plain Text
Продолжительность : 2 ч. 13 м.
Битрейт : 111 бит/сек
ElementCount : 2162
Размер потока : 109 Кбайт (0%)
Заголовок : Full
Язык : Russian
Default : Да
Forced : Нет

Текст #2
Идентификатор : 7
Формат : PGS
Режим смешивания : zlib
Идентификатор кодека : S_HDMV/PGS
Идентификатор кодека/Информация : Picture based subtitle format used on BDs/HD-DVDs
Продолжительность : 2 ч. 13 м.
Битрейт : 15,5 Кбит/сек
ElementCount : 4852
Размер потока : 14,8 Мбайт (0%)
Заголовок : SDH
Язык : English
Default : Нет
Forced : Нет

Текст #3
Идентификатор : 8
Формат : PGS
Режим смешивания : zlib
Идентификатор кодека : S_HDMV/PGS
Идентификатор кодека/Информация : Picture based subtitle format used on BDs/HD-DVDs
Продолжительность : 52 м. 55 с.
Битрейт : 45 бит/сек
ElementCount : 8
Размер потока : 17,5 Кбайт (0%)
Заголовок : English Forced
Язык : English
Default : Нет
Forced : Нет

Меню
00:00:00.000 : en:00:00:00.000
00:02:31.693 : en:00:02:31.693
00:07:55.517 : en:00:07:55.517
00:10:46.229 : en:00:10:46.229
00:14:21.194 : en:00:14:21.194
00:17:42.937 : en:00:17:42.937
00:19:10.775 : en:00:19:10.775
00:24:14.370 : en:00:24:14.370
00:27:11.630 : en:00:27:11.630
00:37:17.444 : en:00:37:17.444
00:42:11.821 : en:00:42:11.821
00:44:40.428 : en:00:44:40.428
00:49:30.926 : en:00:49:30.926
00:52:20.471 : en:00:52:20.471
00:56:47.613 : en:00:56:47.613
01:01:00.073 : en:01:01:00.073
01:04:47.050 : en:01:04:47.050
01:07:22.997 : en:01:07:22.997
01:09:45.098 : en:01:09:45.098
01:11:45.426 : en:01:11:45.426
01:15:21.016 : en:01:15:21.016
01:19:19.213 : en:01:19:19.213
01:21:00.189 : en:01:21:00.189
01:24:49.543 : en:01:24:49.543
01:29:10.845 : en:01:29:10.845
01:32:30.420 : en:01:32:30.420
01:36:11.391 : en:01:36:11.391
01:38:18.851 : en:01:38:18.851
01:42:06.329 : en:01:42:06.329
01:44:18.711 : en:01:44:18.711
01:46:03.774 : en:01:46:03.774
01:48:06.730 : en:01:48:06.730
01:51:31.977 : en:01:51:31.977
01:55:05.398 : en:01:55:05.398
01:58:16.047 : en:01:58:16.047
02:02:04.317 : en:02:02:04.317



Скачать Дэдпул 2 через торрент https://d.radikal.ru/d12/1808/31/f4c53842cdff.png Скачать, смотреть онлайн Дэдпул 2 бесплантно в хорошем качестве Описание: Единственный и неповторимый болтливый наемник - вернулся! Ещё более масштабный, ещё более разрушительный и даже ещё более ... 10 10 10
Info! Золотая раздача, скачанное не засчитывается.
Торрент: Зарегистрирован [2018-08-20 02:40] · скачан: 275 раз
Статус: √ проверено
Размер: 22.22 GB
Как cкачать? Как скачать Дэдпул 2 через торрент | UTorrent

% Раздел Тема Автор DL S | L
Фильмы 2018 [DVDrip, WEB-DLRip, HDrip] (DUB, MVO) [ 806 MB ] Дэдпул 2 / Deadpool 2 | Дубляж "BD EUR" | HDRip, Дубляж "BD EUR" coc900 Скачать
1 | 0
Ultra HD (UHD: 2K, 4K, 8K) [ 16.17 GB ] Дэдпул 2 / Deadpool 2 | Дубляж | 2160p sheker187 Скачать
1 | 0
Фильмы 2018 [DVDrip, WEB-DLRip, HDrip] (DUB, MVO) [ 1.46 GB ] Дэдпул 2 / Deadpool 2 | Лицензия | BDRip Twi7ter Скачать
1 | 0
Фильмы 2018 [DVDrip, WEB-DLRip, HDrip] (DUB, MVO) [ 2.18 GB ] Дэдпул 2 / Deadpool 2 | Лицензия | BDRip Twi7ter Скачать
1 | 0
Ultra HD (UHD: 2K, 4K, 8K) [ 32.56 GB ] Дэдпул 2 / Deadpool 2 | Дубляж | 2160p sheker187 Скачать
1 | 0
Ultra HD (UHD: 2K, 4K, 8K) [ 43.88 GB ] Дэдпул 2 / Deadpool 2 | Дубляж | 2160p sheker187 Скачать
1 | 0
Фильмы 2018 [DVDrip, WEB-DLRip, HDrip] (DUB, MVO) [ 2.18 GB ] Дэдпул 2 / Deadpool 2 | Лицензия | BDRip Twi7ter Скачать
1 | 0

28-11-2019 20:33  


Отключить вcю реклaмy на сайте, в т.ч. и в плеере онлайн просмотра!

    Дорогой пользователь! Огромная просьба, поблагодарите релизера, оцените раздачу и оставьте свои комментарий, если Вы скачали Дэдпул 2 через торрент бесплатно!!
    Комментировать посты могут только пользователи прошедшие не сложную регистрацию
    Показать сообщения:    


    Дэдпул 2 через торрент
    Скачать бесплатно Дэдпул 2
    Дэдпул 2 скачать торрент
    Дэдпул 2 смотреть онлайн
    Cкачать фильм Дэдпул 2 бесплатно
    Дэдпул 2 скачать торрент в хорошем качестве
    Дэдпул 2 смотреть онлайн бесплатно в хорошем качестве
    Вы не можете начинать темы
    Вы не можете отвечать на сообщения
    Вы не можете редактировать свои сообщения
    Вы не можете удалять свои сообщения
    Вы не можете голосовать в опросах
    Вы не можете прикреплять файлы к сообщениям
    Вы можете скачивать файлы
    Дэдпул 2 / Deadpool 2 [2018, фантастика, боевик, комедия, UHD BDRip 2160p] [Расширенная версия] Дубляж смотреть онлайн, скачать торрент picoco.icu