2 сезон

iTunes

WEBRip

1

2 сезон

iTunes

1 сезон

1 сезон

RePack

30

Ultimate

ВАЖНО

ИГРА 18+

pack

RePack

MK11
pack

Легкие деньги

RePack

jed

RePack

fifa19

RePack

RDR2

RePack

NEED FOR SPEED™ PAYBACK

4 сезон

9 сезон

Бесстыжие 9 сезон

Все сериалы

все сериалы на PB.wtf

RePack

FAR CRY 5

Anonymous, доброй ночи, мы не успеваем собрать деньги на оплату серверов за февраль, помогите нам пожалуйста в это трудное время. В качестве благодарности мы отключим Вам всю рекламу на сайте (укажите свой ник в строку Ваше имя)!

×
  
Magnet ссылка

Дэдпул 2 / Deadpool 2 (Дэвид Литч) [2018, фантастика, боевик, комедия, приключения, BDRip-AVC] [The Super Duper Cut] [Ukr DUB] [Лицензия] piratbit.org

Дэдпул 2 через торрент piratbit.org

Размер: 2.77 GB | Добавлен: 2 года 6 мес. назад | Торрент скачан:100 раз
Скачать  

20-08-2018 06:12 Дэдпул 2 Скачать торрент  

Дэдпул 2/ Deadpool 2
Год выпуска: 2018
Страна: США
Жанр: фантастика, боевик, комедия, приключения
Продолжительность: 02:13:59
Перевод: Украинский (дублированный) [Лицензия]
Субтитры: украинские, английские

Режиссер: Дэвид Литч

В ролях: Джош Бролин, Райан Рейнольдс, Морена Баккарин, Зази Битц, Брианна Хилдебранд, Брэд Питт, Билл Скарсгард, ТиДжей Миллер, Терри Крюс, Роб Делани Единственный и неповторимый болтливый наемник — вернулся! Ещё более масштабный, ещё более разрушительный и даже ещё более голозадый, чем прежде! Когда в его жизнь врывается суперсолдат с убийственной миссией, Дэдпул вынужден задуматься о дружбе, семье и о том, что на самом деле значит быть героем, попутно надирая 50 оттенков задниц. Потому что иногда чтобы делать хорошие вещи, нужно использовать грязные приёмчики.



Качество: BDRip-AVC
Формат видео: MKV
Видео кодек: AVC
Аудио кодек: AC3, AAC
Видео: MPEG-4 AVC, 1024x428, 2068 kb/s, 23.976 gfps
Аудио 1: 48.0 kHz, AC3, 6 Ch, 448 Кбит/c [Ukr DUB]
Аудио 2: 48.0 kHz, AAC, 6 Ch, 448 Кбит/c [Eng]
General
Unique ID : 211730856985930754940100088730475690793 (0x9F49E138150FB36786B360356A75FB29)
Complete name : E:\INTERNET\Deadpool 2 (The Super Duper Cut) (2018) BDRip-AVC [UKR_ENG] [Hurtom].mkv
Format : Matroska
Format version : Version 4 / Version 2
File size : 2.77 GiB
Duration : 2 h 13 min
Overall bit rate : 2 960 kb/s
Encoded date : UTC 2018-08-19 21:18:55
Writing application : mkvmerge v14.0.0 ('Flow') 64bit
Writing library : libebml v1.3.4 + libmatroska v1.4.5
Cover : Yes
Attachments : cover

Video
ID : 1
Format : AVC
Format/Info : Advanced Video Codec
Format profile : High@L4.1
Format settings : CABAC / 12 Ref Frames
Format settings, CABAC : Yes
Format settings, RefFrames : 12 frames
Codec ID : V_MPEG4/ISO/AVC
Duration : 2 h 13 min
Bit rate : 2 062 kb/s
Width : 1 024 pixels
Height : 428 pixels
Display aspect ratio : 2.40:1
Frame rate mode : Constant
Frame rate : 23.976 (24000/1001) FPS
Color space : YUV
Chroma subsampling : 4:2:0
Bit depth : 8 bits
Scan type : Progressive
Bits/(Pixel*Frame) : 0.196
Stream size : 1.88 GiB (68%)
Writing library : x264 core 148 r2638 7599210
Encoding settings : cabac=1 / ref=12 / deblock=1:-2:-2 / analyse=0x3:0x113 / me=umh / subme=11 / psy=1 / psy_rd=1.05:0.10 / mixed_ref=1 / me_range=32 / chroma_me=1 / trellis=2 / 8x8dct=1 / cqm=0 / deadzone=21,11 / fast_pskip=0 / chroma_qp_offset=-3 / threads=12 / lookahead_threads=3 / sliced_threads=0 / nr=0 / decimate=1 / interlaced=0 / bluray_compat=0 / constrained_intra=0 / bframes=12 / b_pyramid=2 / b_adapt=2 / b_bias=0 / direct=3 / weightb=1 / open_gop=0 / weightp=2 / keyint=240 / keyint_min=23 / scenecut=40 / intra_refresh=0 / rc_lookahead=40 / rc=2pass / mbtree=0 / bitrate=2062 / ratetol=1.0 / qcomp=0.60 / qpmin=0 / qpmax=51 / qpstep=4 / cplxblur=20.0 / qblur=0.5 / vbv_maxrate=50000 / vbv_bufsize=62500 / nal_hrd=none / filler=0 / ip_ratio=1.30 / pb_ratio=1.20 / aq=2:0.90
Language : English
Default : Yes
Forced : No
Color range : Limited
Color primaries : BT.709
Transfer characteristics : BT.709
Matrix coefficients : BT.709

Audio #1
ID : 2
Format : AC-3
Format/Info : Audio Coding 3
Format settings, Endianness : Big
Codec ID : A_AC3
Duration : 2 h 13 min
Bit rate mode : Constant
Bit rate : 448 kb/s
Channel(s) : 6 channels
Channel positions : Front: L C R, Side: L R, LFE
Sampling rate : 48.0 kHz
Frame rate : 31.250 FPS (1536 SPF)
Bit depth : 16 bits
Compression mode : Lossy
Stream size : 429 MiB (15%)
Title : AC3 5.1 @ 448 kbps
Language : Ukrainian
Service kind : Complete Main
Default : Yes
Forced : Yes

Audio #2
ID : 3
Format : AC-3
Format/Info : Audio Coding 3
Format settings, Endianness : Big
Codec ID : A_AC3
Duration : 2 h 13 min
Bit rate mode : Constant
Bit rate : 448 kb/s
Channel(s) : 6 channels
Channel positions : Front: L C R, Side: L R, LFE
Sampling rate : 48.0 kHz
Frame rate : 31.250 FPS (1536 SPF)
Bit depth : 16 bits
Compression mode : Lossy
Stream size : 429 MiB (15%)
Title : AC3 5.1 @ 448 kbps
Language : English
Service kind : Complete Main
Default : No
Forced : No

Text #1
ID : 4
Format : UTF-8
Codec ID : S_TEXT/UTF8
Codec ID/Info : UTF-8 Plain Text
Title : Forced
Language : Ukrainian
Default : Yes
Forced : Yes

Text #2
ID : 5
Format : UTF-8
Codec ID : S_TEXT/UTF8
Codec ID/Info : UTF-8 Plain Text
Title : Full
Language : Ukrainian
Default : No
Forced : No

Text #3
ID : 6
Format : UTF-8
Codec ID : S_TEXT/UTF8
Codec ID/Info : UTF-8 Plain Text
Title : Full
Language : English
Default : No
Forced : No

Text #4
ID : 7
Format : UTF-8
Codec ID : S_TEXT/UTF8
Codec ID/Info : UTF-8 Plain Text
Title : SDH
Language : English
Default : No
Forced : No

Menu
00:00:00.000 : en:00:00:00.000
00:02:31.693 : en:00:02:31.693
00:07:55.517 : en:00:07:55.517
00:10:46.229 : en:00:10:46.229
00:14:21.194 : en:00:14:21.194
00:17:42.937 : en:00:17:42.937
00:19:10.775 : en:00:19:10.775
00:24:14.370 : en:00:24:14.370
00:27:11.630 : en:00:27:11.630
00:37:17.444 : en:00:37:17.444
00:42:11.821 : en:00:42:11.821
00:44:40.428 : en:00:44:40.428
00:49:30.926 : en:00:49:30.926
00:52:20.471 : en:00:52:20.471
00:56:47.613 : en:00:56:47.613
01:01:00.073 : en:01:01:00.073
01:04:47.050 : en:01:04:47.050
01:07:22.997 : en:01:07:22.997
01:09:45.098 : en:01:09:45.098
01:11:45.426 : en:01:11:45.426
01:15:21.016 : en:01:15:21.016
01:19:19.213 : en:01:19:19.213
01:21:00.189 : en:01:21:00.189
01:24:49.543 : en:01:24:49.543
01:29:10.845 : en:01:29:10.845
01:32:30.420 : en:01:32:30.420
01:36:11.391 : en:01:36:11.391
01:38:18.851 : en:01:38:18.851
01:42:06.329 : en:01:42:06.329
01:44:18.711 : en:01:44:18.711
01:46:03.774 : en:01:46:03.774
01:48:06.730 : en:01:48:06.730
01:51:31.977 : en:01:51:31.977
01:55:05.398 : en:01:55:05.398
01:58:16.047 : en:01:58:16.047
02:02:04.317 : en:Medusa @ HDChina
скриншот   скриншот   скриншот  
piratbit.org



Скачать Дэдпул 2 через торрент http://i105.fastpic.ru/big/2018/0726/44/950fdae7f708bb9dfbb24a4fda3a6744.jpg Скачать фильм Дэдпул 2 через торрент бесплантно в хорошем качестве В ролях: Джош Бролин, Райан Рейнольдс, Морена Баккарин, Зази Битц, Брианна Хилдебранд, Брэд Питт, Билл Скарсгард, ТиДжей Миллер, Терри ... 10 10 4
Info! Золотая раздача, скачанное не засчитывается.
Торрент: Зарегистрирован [2018-08-20 06:12] · скачан: 100 раз
Статус: √ проверено
Размер: 2.77 GB
Как cкачать? Как скачать Дэдпул 2 через торрент | UTorrent

% Раздел Тема Автор DL S | L
Фильмы [HD 720p, 1080p] (Хороший звук DUB, MVO) [ 4.95 GB ] Дэдпул 2 / Deadpool 2 / Super Duper Cut [2018 BDRip 1080p-HEVC 10bit Одноголосый ] ADVOKAT69 Скачать
1 | 0
Ultra HD (UHD: 2K, 4K, 8K) — видео сверхвысокой чёткости [ 60.72 GB ] Дэдпул 2 / Deadpool 2 [2018 UHD BDRemux 2160p] [Расширенная версия] DUB [] + 2xAVO sheker187 Скачать
1 | 0
Фильмы [HD 720p, 1080p] (Хороший звук DUB, MVO) [ 15.01 GB ] Дэдпул 2 / Deadpool 2 [2018 BDRip 1080p] [Театральная версия] DUB [] bober100 Скачать
2 | 0
Фильмы 2018 [DVDrip, WEB-DLRip, HDrip] (DUB, MVO) [ 2.18 GB ] Дэдпул 2 / Deadpool 2 [2018 BDRip] [Расширенная версия] DUB [] bober100 Скачать
1 | 0
Фильмы с авторской озвучкой [ 2.18 GB ] Дэдпул 2 / Deadpool 2 [2018 BDRip] AVO [Гаевский] Twi7ter Скачать
1 | 0
Фильмы (HD 720p, 1080p) (48-60 fps) [ 8.03 GB ] Дэдпул 2 / Deadpool 2 [2018 BDRip 720p 60 fps от еnvy / NNNB] DUB | Расширенная версия | еnvy Скачать
11 | 0
Фильмы [HD 720p, 1080p] (Хороший звук DUB, MVO) [ 9.74 GB ] Дэдпул 2 / Deadpool 2 [2018 BDRip 720p] [Расширенная версия] 2xAVO+DUB [] bober100 Скачать
3 | 0

28-11-2019 20:33  

Отключить всю рекламу на сайте

    Дорогой пользователь! Огромная просьба, поблагодарите релизера, оцените раздачу и оставьте свои комментарий, если Вы скачали Дэдпул 2 через торрент бесплатно! Внесите свою лепту в развитие PiratBit!
    Комментировать посты могут только пользователи прошедшие не сложную регистрацию
    Показать сообщения:    

    Дэдпул 2 через торрент
    Скачать бесплатно Дэдпул 2
    Дэдпул 2 скачать торрент
    Дэдпул 2 смотреть онлайн
    Cкачать фильм Дэдпул 2 бесплатно
    Дэдпул 2 скачать торрент в хорошем качестве
    Дэдпул 2 смотреть онлайн бесплатно в хорошем качестве


    Вы не можете начинать темы
    Вы не можете отвечать на сообщения
    Вы не можете редактировать свои сообщения
    Вы не можете удалять свои сообщения
    Вы не можете голосовать в опросах
    Вы не можете прикреплять файлы к сообщениям
    Вы можете скачивать файлы