Достать ножи: Стеклянная луковица

MVO

Добыча

Дубляж

Уэнсдэй

1 сезон

Тор

Дубляж

13 клиническая

1 сезон

Жестокая ночь

MVO

Одни из нас

1 сезон

Deluxe

pack

Рекомендуем

30

Пиратка

ВАЖНО

ВАЖНО

Ghostwire

Пиратка

jed

RePack

nioh2

RePack

RDR2

RePack

NEED FOR SPEED™ PAYBACK

RePack

скачать торрент

Кинопоиск HD

Острые козырьки 6 сезон

6 сезон

FAR CRY 6

RePack

скачать торрент

Лицензия

скачать торрент

MVO

1

1 сезон

скачать торрент

1 сезон

скачать торрент

Лицензия

  

Звезда родилась / A Star Is Born (Брэдли Купер) [2018, мелодрама, музыка, UHD BDRemux 2160p] Дубляж [Лицензия] [Dolby Vision TV]

Звезда родилась через торрент piratbit.org

Размер: 43.66 GB | Добавлен: 4 года назад | Торрент скачан:41 раз
Смотреть онлайн | Скачать | Поддержите нас   

04-02-2019 14:59 Звезда родилась Скачать торрент  

Звезда родилась / A Star Is Born

Год выпуска: 2018
Страна: США
Жанр: мелодрама, музыка
Продолжительность: 02:15:35
Перевод: Дублированный [Лицензия]
Режиссер: Брэдли Купер
В ролях:

Леди Гага (Ally), Брэдли Купер (Jack), Сэм Эллиотт (Bobby), Эндрю Дайс Клэй (Lorenzo), Рафи Гаврон (Rez Gavron), Энтони Рамос (Ramon), Дэйв Шаппелл (George «Noodles» Stone), Алек Болдуин (Alec Baldwin), Марлон Уильямс (Marlon Williams), Брэнди Карлайл (Brandi Carlile), Рон Рифкин (Carl), Бэрри Шебака Хенли (Little Feet)
Описание:
Кантри-музыкант Джексон Мейн, чья карьера быстро катится под откос, однажды знакомится с никому не известной талантливой певицей Элли. Между героями вспыхивает страстный роман. Джек помогает Элли добиться успеха. Но чем стремительнее набирает обороты музыкальная карьера Элли, тем сложнее ему мириться со своей увядающей славой.
Рейтинг:

MPAA: R - Лицам до 17 лет обязательно присутствие взрослого
Качество: UHD BDRemux 2160p | Dolby Vision TV
Формат: MP4
Видео: HEVC, 43.5 Мбит/с, 3840x2160
Аудио: Русский (AC3, 6 ch, 448 Кбит/с)

Данный вид релизов (контейнер MP4) предназначен для встроенного в ТВ (соответственно, с поддержкой DV) плеер.
Т.Е. Можно использовать как USB flash/HDD, так и DLNA / Plex - подобные сервисы/программы. дополнительный-внешний плеер не обязателен.

Внимание!
На моделях LG 2016 возможны сюрпризы "через раз", 2017-2018 должно идти без сюрпризов )
Общее
Полное имя : A.Star.Is.Born.2018.UHD.BDRemux.2160p.DV.IVA.RUS.ExKinoRay.mp4
Формат : MPEG-4
Профиль формата : Base Media / Version 2
Идентификатор кодека : mp42 (mp42/iso6/isom/msdh/dby1)
Размер файла : 43,7 Гбайт
Продолжительность : 2 ч. 15 м.
Общий поток : 46,0 Мбит/сек
Дата кодирования : UTC 2019-02-04 11:54:44
Дата пометки : UTC 2019-02-04 11:54:44

Видео #1
Идентификатор : 1
Формат : HEVC
Формат/Информация : High Efficiency Video Coding
Коммерческое название : HDR10
Профиль формата : Main 10@L5.1@High
Идентификатор кодека : hev1
Идентификатор кодека/Информация : High Efficiency Video Coding
Продолжительность : 2 ч. 15 м.
Битрейт : 43,5 Мбит/сек
Ширина : 3840 пикселей
Высота : 2160 пикселей
Соотношение сторон : 16:9
Режим частоты кадров : Постоянный
Частота кадров : 23,976 (24000/1001) кадра/сек
Цветовое пространство : YUV
Субдискретизация насыщенности : 4:2:0 (Type 2)
Битовая глубина : 10 бит
Бит/(Пиксели*Кадры) : 0.219
Размер потока : 41,2 Гбайт (94%)
Default : Нет
Дата кодирования : UTC 2019-02-04 11:54:44
Дата пометки : UTC 2019-02-04 11:54:44
Цветовой диапазон : Limited
Основные цвета : BT.2020
Характеристики трансфера : PQ
Коэффициенты матрицы : BT.2020 non-constant
MasteringDisplay_ColorPrimaries : Display P3
MasteringDisplay_Luminance : min: 0.0050 cd/m2, max: 4000 cd/m2
MaxCLL : 671 cd/m2
MaxFALL : 310 cd/m2
Codec configuration box : hvcC

Видео #2
Идентификатор : 2
Формат : HEVC
Формат/Информация : High Efficiency Video Coding
Коммерческое название : HDR10
Профиль формата : Main 10@L5.1@High
Dolby Vision : 1.0, dvhe.07.06, EL+RPU
Идентификатор кодека : dvhe
Идентификатор кодека/Информация : High Efficiency Video Coding with Dolby Vision
Продолжительность : 2 ч. 15 м.
Битрейт : 2097 Кбит/сек
Ширина : 1920 пикселей
Высота : 1080 пикселей
Соотношение сторон : 16:9
Режим частоты кадров : Постоянный
Частота кадров : 23,976 (24000/1001) кадра/сек
Цветовое пространство : YUV
Субдискретизация насыщенности : 4:2:0 (Type 2)
Битовая глубина : 10 бит
Бит/(Пиксели*Кадры) : 0.042
Размер потока : 1,99 Гбайт (5%)
Default : Нет
Дата кодирования : UTC 2019-02-04 11:54:44
Дата пометки : UTC 2019-02-04 11:54:44
Цветовой диапазон : Limited
Основные цвета : BT.2020
Характеристики трансфера : PQ
Коэффициенты матрицы : BT.2020 non-constant
MasteringDisplay_ColorPrimaries : Display P3
MasteringDisplay_Luminance : min: 0.0050 cd/m2, max: 4000 cd/m2
Codec configuration box : hvcC+dvcC

Аудио
Идентификатор : 3
Формат : AC-3
Формат/Информация : Audio Coding 3
Коммерческое название : Dolby Digital
Идентификатор кодека : ac-3
Продолжительность : 2 ч. 15 м.
Вид битрейта : Постоянный
Битрейт : 448 Кбит/сек
Каналы : 6 каналов
Channel layout : L R C LFE Ls Rs
Частота : 48,0 КГц
Частота кадров : 31,250 кадров/сек (1536 SPF)
Битовая глубина : 16 бит
Метод сжатия : С потерями
Размер потока : 435 Мбайт (1%)
Язык : Russian
ServiceKind/String : Complete Main
Default : Нет
Дата кодирования : UTC 2019-02-04 11:54:44
Дата пометки : UTC 2019-02-04 11:54:44



Скачать Звезда родилась через торрент https://d.radikal.ru/d28/1902/e5/c57344eeba1e.png Скачать, смотреть онлайн Звезда родилась бесплантно в хорошем качестве Описание: Кантри-музыкант Джексон Мейн, чья карьера быстро катится под откос, однажды знакомится с никому не известной талантливой певицей ... 10 10 3
Торрент: Зарегистрирован [2019-02-04 14:59] · скачан: 41 раз
Статус: √ проверено
Размер: 43.66 GB
Как cкачать? Как скачать Звезда родилась через торрент | UTorrent

% Раздел Тема Автор DL S | L
Фильмы [HD 720p, 1080p] (Хороший звук DUB, MVO) [ 2.8 GB ] Звезда родилась / A Star Is Born | Лицензия | 1080p, HEVC (10bit Мичман37 Скачать
1 | 0
Ultra HD (UHD: 2K, 4K, 8K) [ 22.12 GB ] Звезда родилась / A Star Is Born | Лицензия | 2160p sheker187 Скачать
1 | 0
Ultra HD (UHD: 2K, 4K, 8K) [ 49.51 GB ] Звезда родилась / A Star Is Born | Лицензия | 2160p sheker187 Скачать
1 | 0
Ultra HD (UHD: 2K, 4K, 8K) [ 57.91 GB ] Звезда родилась / A Star Is Born | Лицензия | 2160p sheker187 Скачать
1 | 0
Фильмы [HD 720p, 1080p] (Хороший звук DUB, MVO) [ 4.44 GB ] Звезда родилась / A Star Is Born | Лицензия | 1080p, (10 bit bober100 Скачать
1 | 0
Фильмы 2018 [DVDrip, WEB-DLRip, HDrip] (DUB, MVO) [ 2.18 GB ] Звезда родилась / A Star Is Born | Лицензия | BDRip Twi7ter Скачать
2 | 0
Фильмы 2018 [DVDrip, WEB-DLRip, HDrip] (DUB, MVO) [ 1.46 GB ] Звезда родилась / A Star Is Born | Лицензия | BDRip Twi7ter Скачать
1 | 0

28-11-2019 20:33  


Отключить вcю реклaмy на сайте, в т.ч. и в плеере онлайн просмотра!

14-08-2019 16:55 Звезда родилась Скачать торрент  

Народ, дайте газу ! ))) скорость 300 кб всего !



    Дорогой пользователь! Огромная просьба, поблагодарите релизера, оцените раздачу и оставьте свои комментарий, если Вы скачали Звезда родилась через торрент бесплатно!!
    Комментировать посты могут только пользователи прошедшие не сложную регистрацию
    Показать сообщения:    


    Звезда родилась через торрент
    Скачать бесплатно Звезда родилась
    Звезда родилась скачать торрент
    Звезда родилась смотреть онлайн
    Cкачать фильм Звезда родилась бесплатно
    Звезда родилась скачать торрент в хорошем качестве
    Звезда родилась смотреть онлайн бесплатно в хорошем качестве
    Вы не можете начинать темы
    Вы не можете отвечать на сообщения
    Вы не можете редактировать свои сообщения
    Вы не можете удалять свои сообщения
    Вы не можете голосовать в опросах
    Вы не можете прикреплять файлы к сообщениям
    Вы можете скачивать файлы
    Звезда родилась / A Star Is Born [2018, мелодрама, музыка, UHD BDRemux 2160p] Дубляж [Лицензия] [Dolby Vision TV] смотреть онлайн, скачать торрент picoco.icu