2 сезон

iTunes

WEBRip

1

2 сезон

iTunes

1 сезон

1 сезон

RePack

30

Новинка

ВАЖНО

ИГРА 18+

pack

RePack

MK11
pack

Легкие деньги

RePack

jed

RePack

fifa19

RePack

RDR2

RePack

NEED FOR SPEED™ PAYBACK

4 сезон

9 сезон

Бесстыжие 9 сезон

Все сериалы

все сериалы на PB.wtf

RePack

FAR CRY 5

Anonymous, доброй ночи, мы не успеваем собрать деньги на оплату серверов за февраль, помогите нам пожалуйста в это трудное время. В качестве благодарности мы отключим Вам всю рекламу на сайте (укажите свой ник в строку Ваше имя)!

×
  
Magnet ссылка

Пышка / Dumplin' (Энн Флетчер / Anne Fletcher) [2018, мюзикл, драма, комедия, WEBRip 1080p] [Ukr DUB] piratbit.org

Пышка через торрент piratbit.org

Размер: 4.57 GB | Добавлен: 2 года назад | Торрент скачан:30 раз
Скачать  

05-02-2019 13:54 Пышка Скачать торрент  


Пышка / Dumplin'

«Мое тело - мое дело»

Год выпуска: 2018
Страна: США
Жанр: мюзикл, драма, комедия
Продолжительность: 01:50:12
Перевод: Украинский (дублированный)
Субтитры: нет

Режиссер: Энн Флетчер / Anne Fletcher

В ролях: Дженнифер Энистон, Одейя Раш, Даниэль МакДональд, Мэдди Биллио, Бекс Тейлор-Клаус, Люк Бенвард, Джорджи Флорес, Дав Камерон, Хэролд Перрино, Кэти Нэджими
Описание: Уиллоудин, полная дочь-подросток бывшей королевы красоты, в знак протеста решает участвовать в местном конкурсе красоты, который курирует её мама. Вскоре к ней присоединяются и другие девушки, чья внешность отличается от общепринятых стандартов.

rating

Качество видео: WEBRip 1080p
Формат видео: MKV
Видео: MPEG-4 AVC, 1920x1080, 23.976 fps, ~5100 kbps avg
Аудио 1: 48 kHz, AC3, 2 ch, ~192 kbps avg - Ukr DUB
Аудио 2: 48 kHz, E-AC3, 6 ch, ~640 kbps avg - Eng
General
Unique ID : 282598386616184657939822060760965866356 (0xD49A783147D8F68FD8DC2339E5946374)
Complete name : E:\Dumplin' (2018) WEBRip 1080p [Ukr(Mic),Eng Sub Eng].mkv
Format : Matroska
Format version : Version 4 / Version 2
File size : 4.57 GiB
Duration : 1 h 50 min
Overall bit rate mode : Variable
Overall bit rate : 5 930 kb/s
Movie name : Release for UKR.TO
Encoded date : UTC 2019-01-18 11:56:13
Writing application : mkvmerge v30.1.0 ('Forever And More') 32-bit
Writing library : libebml v1.3.6 + libmatroska v1.4.9
Cover : Yes
Attachments : cover_land.jpg / small_cover.jpg / small_cover_land.jpg / cover.jpg

Video
ID : 1
Format : AVC
Format/Info : Advanced Video Codec
Format profile : Main@L4
Format settings : CABAC / 3 Ref Frames
Format settings, CABAC : Yes
Format settings, RefFrames : 3 frames
Codec ID : V_MPEG4/ISO/AVC
Duration : 1 h 50 min
Bit rate mode : Variable
Bit rate : 5 110 kb/s
Maximum bit rate : 7 665 kb/s
Width : 1 920 pixels
Height : 1 080 pixels
Display aspect ratio : 16:9
Frame rate mode : Constant
Frame rate : 23.976 (24000/1001) FPS
Color space : YUV
Chroma subsampling : 4:2:0
Bit depth : 8 bits
Scan type : Progressive
Bits/(Pixel*Frame) : 0.103
Stream size : 3.83 GiB (84%)
Writing library : x264 core 148 r2715 7e75228
Encoding settings : cabac=1 / ref=3 / deblock=1:0:0 / analyse=0x1:0x111 / me=umh / subme=10 / psy=1 / psy_rd=1.00:0.00 / mixed_ref=1 / me_range=24 / chroma_me=1 / trellis=2 / 8x8dct=0 / cqm=0 / deadzone=21,11 / fast_pskip=1 / chroma_qp_offset=-2 / threads=8 / lookahead_threads=1 / sliced_threads=0 / nr=0 / decimate=1 / interlaced=0 / bluray_compat=0 / stitchable=1 / constrained_intra=0 / bframes=2 / b_pyramid=0 / b_adapt=2 / b_bias=0 / direct=3 / weightb=1 / open_gop=0 / weightp=2 / keyint=48 / keyint_min=25 / scenecut=0 / intra_refresh=0 / rc_lookahead=48 / rc=2pass / mbtree=1 / bitrate=5110 / ratetol=1.0 / qcomp=0.50 / qpmin=6 / qpmax=51 / qpstep=4 / cplxblur=20.0 / qblur=0.5 / vbv_maxrate=7665 / vbv_bufsize=10220 / nal_hrd=vbr / filler=0 / ip_ratio=1.40 / aq=1:1.00
Language : English
Default : Yes
Forced : No

Audio #1
ID : 2
Format : AC-3
Format/Info : Audio Coding 3
Format settings, Endianness : Big
Codec ID : A_AC3
Duration : 1 h 50 min
Bit rate mode : Constant
Bit rate : 192 kb/s
Channel(s) : 2 channels
Channel positions : Front: L R
Sampling rate : 48.0 kHz
Frame rate : 31.250 FPS (1536 SPF)
Bit depth : 16 bits
Compression mode : Lossy
Stream size : 151 MiB (3%)
Language : Ukrainian
Service kind : Complete Main
Default : Yes
Forced : No

Audio #2
ID : 3
Format : E-AC-3
Format/Info : Enhanced Audio Coding 3
Format settings, Endianness : Big
Codec ID : A_EAC3
Duration : 1 h 50 min
Bit rate mode : Constant
Bit rate : 640 kb/s
Channel(s) : 6 channels
Channel positions : Front: L C R, Side: L R, LFE
Sampling rate : 48.0 kHz
Frame rate : 187.500 FPS (256 SPF)
Compression mode : Lossy
Stream size : 505 MiB (11%)
Language : English
Service kind : Complete Main
Default : No
Forced : No

Text
ID : 4
Format : UTF-8
Codec ID : S_TEXT/UTF8
Codec ID/Info : UTF-8 Plain Text
Title : English
Language : English
Default : Yes
Forced : No
скриншот   скриншот   скриншот   скриншот  
piratbit.org



Скачать Пышка через торрент https://i107.fastpic.ru/big/2018/1230/ba/b39c3721fe05fe09e24128f77641f6ba.jpg Скачать фильм Пышка через торрент бесплантно в хорошем качестве Описание: Уиллоудин, полная дочь-подросток бывшей королевы красоты, в знак протеста решает участвовать в местном конкурсе красоты, который ... 5 10 1
Торрент: Зарегистрирован [2019-02-05 13:54] · скачан: 30 раз
Статус: √ проверено
Размер: 4.57 GB
Как cкачать? Как скачать Пышка через торрент | UTorrent

28-11-2019 20:33  

Отключить всю рекламу на сайте

    Дорогой пользователь! Огромная просьба, поблагодарите релизера, оцените раздачу и оставьте свои комментарий, если Вы скачали Пышка через торрент бесплатно! Внесите свою лепту в развитие PiratBit!
    Комментировать посты могут только пользователи прошедшие не сложную регистрацию
    Показать сообщения:    

    Пышка через торрент
    Скачать бесплатно Пышка
    Пышка скачать торрент
    Пышка смотреть онлайн
    Cкачать фильм Пышка бесплатно
    Пышка скачать торрент в хорошем качестве
    Пышка смотреть онлайн бесплатно в хорошем качестве


    Вы не можете начинать темы
    Вы не можете отвечать на сообщения
    Вы не можете редактировать свои сообщения
    Вы не можете удалять свои сообщения
    Вы не можете голосовать в опросах
    Вы не можете прикреплять файлы к сообщениям
    Вы можете скачивать файлы