Доктор Стрэндж

Лицензия

Добыча

MVO

Дом дракона

1 сезон

Тор

Лицензия

Мэверик

Лицензия

Там, где раки поют

MVO

Властелин колец

1 сезон

Ultimate

pack

Рекомендуем

30

Repack

ВАЖНО

ВАЖНО

Ghostwire

RePack

jed

RePack

nioh2

RePack

RDR2

RePack

NEED FOR SPEED™ PAYBACK

RePack

скачать торрент

Кинопоиск HD

Острые козырьки 6 сезон

6 сезон

FAR CRY 6

RePack

скачать торрент

Лицензия

скачать торрент

MVO

1

1 сезон

скачать торрент

1 сезон

скачать торрент

Лицензия

  

Приключения Кроша (Генрих Оганисян) [1962, СССР, приключения, семейный, DVDRip-AVC от AVP Studio]

Приключения Кроша через торрент piratbit.org

Размер: 1.09 GB | Добавлен: 3 года 8 мес. назад | Торрент скачан:16 раз
Смотреть онлайн | Скачать   

06-02-2019 09:09 Приключения Кроша Скачать торрент  

Приключения Кроша
Страна: СССР
Производство: Киностудия им. М. Горького

Жанр: приключения, семейный
Год выпуска: 1962
Продолжительность: 01:20:31

Перевод: Не требуется
Cубтитры: нет
Оригинальная аудиодорожка: русский

Режиссер: Генрих Оганисян

В ролях:
Николай Томашевский, Андрей Юренев, Никита Михалков, И. Погребенко, Вера Белякова, Е. Логинова, В. Суханов, М. Сысуев, Светлана Балашова, Николай Парфёнов, Владимир Кашпур, Владимир Калмыков, Нина Шатерникова, Лариса Лужина, Савелий Крамаров...
Об актёрах подробней

Описание:
По одноименной повести Анатолия Рыбакова.
Ребята-старшеклассники проходят практику на автобазе. Это их первое знакомство не только с производством, но и со взрослой жизнью. На базе происходит ЧП: со склада пропадает новенький амортизатор, а затем и машина. И наблюдательный Крош начинает расследование...

Источник: DVD9 R5
Качество видео: DVDRip-AVC
Формат видео: MKV

Видео: 700->761х572 (4:3), 25 fps, H264 ~ 1486 kbps avg, 0.148 bit/pixel
Аудио: 48 kHz, Dolby Digital AC3 5.1, 448 kbps

Раздача от:
Общее
Полное имя : Priklyucheniya.Krosha.1962.DVDRip-AVC_[New-team]_by_AVP_Studio_T04.mkv
Формат : Matroska
Версия формата : Version 2
Размер файла : 1,09 Гбайт
Продолжительность : 1 ч. 20 м.
Общий поток : 1936 Кбит/сек
Дата кодирования : UTC 2019-02-04 22:04:20
Программа кодирования : mkvmerge v6.1.0 ('Old Devil') built on Mar 4 2013 09:10:42
Библиотека кодирования : libebml v1.3.0 + libmatroska v1.4.0

Видео
Идентификатор : 1
Формат : AVC
Формат/Информация : Advanced Video Codec
Профиль формата : High@L4.1
Настройки формата : CABAC / 10 Ref Frames
Параметр CABAC формата : Да
Параметр RefFrames формата : 10 кадров
Идентификатор кодека : V_MPEG4/ISO/AVC
Продолжительность : 1 ч. 20 м.
Битрейт : 1486 Кбит/сек
Ширина : 700 пикселей
Высота : 572 пикселя
Соотношение сторон : 4:3
Режим частоты кадров : Постоянный
Частота кадров : 25,000 кадров/сек
Цветовое пространство : YUV
Субдискретизация насыщенности : 4:2:0
Битовая глубина : 8 бит
Тип развёртки : Прогрессивная
Бит/(Пиксели*Кадры) : 0.148
Размер потока : 835 Мбайт (75%)
Библиотека кодирования : x264 core 157 r2932 303c484
Настройки программы : cabac=1 / ref=10 / deblock=1:-2:-1 / analyse=0x3:0x113 / me=umh / subme=10 / psy=1 / psy_rd=1.00:0.00 / mixed_ref=1 / me_range=32 / chroma_me=1 / trellis=2 / 8x8dct=1 / cqm=0 / deadzone=21,11 / fast_pskip=1 / chroma_qp_offset=-2 / threads=6 / lookahead_threads=1 / sliced_threads=0 / nr=0 / decimate=0 / interlaced=0 / bluray_compat=0 / constrained_intra=0 / bframes=8 / b_pyramid=2 / b_adapt=2 / b_bias=0 / direct=3 / weightb=1 / open_gop=0 / weightp=2 / keyint=250 / keyint_min=25 / scenecut=40 / intra_refresh=0 / rc=2pass / mbtree=0 / bitrate=1486 / ratetol=1.0 / qcomp=0.60 / qpmin=0 / qpmax=69 / qpstep=4 / cplxblur=20.0 / qblur=0.5 / ip_ratio=1.40 / pb_ratio=1.30 / aq=1:1.00
Default : Да
Forced : Нет

Аудио
Идентификатор : 2
Формат : AC-3
Формат/Информация : Audio Coding 3
Коммерческое название : Dolby Digital
Идентификатор кодека : A_AC3
Продолжительность : 1 ч. 20 м.
Вид битрейта : Постоянный
Битрейт : 448 Кбит/сек
Каналы : 6 каналов
Channel layout : L R C LFE Ls Rs
Частота : 48,0 КГц
Частота кадров : 31,250 кадров/сек (1536 SPF)
Битовая глубина : 16 бит
Метод сжатия : С потерями
Размер потока : 258 Мбайт (23%)
Default : Да
Forced : Нет



Скачать Приключения Кроша через торрент http://picplus.ru/img/1902/05/ccd7437f.png Скачать, смотреть онлайн Приключения Кроша бесплантно в хорошем качестве Описание:По одноименной повести Анатолия Рыбакова.Ребята-старшеклассники проходят практику на автобазе. Это их первое знакомство не только ... 5 10 1
Торрент: Зарегистрирован [2019-02-06 09:09] · скачан: 16 раз
Статус: √ проверено
Размер: 1.09 GB
Как cкачать? Как скачать Приключения Кроша через торрент | UTorrent

% Раздел Тема Автор DL S | L
Кино СССР [ 1.09 GB ] Приключения Кроша | | DVDRip от AVP Studio AVP Studio Скачать
1 | 0

28-11-2019 20:33  


Отключить вcю реклaмy на сайте, в т.ч. и в плеере онлайн просмотра!

    Дорогой пользователь! Огромная просьба, поблагодарите релизера, оцените раздачу и оставьте свои комментарий, если Вы скачали Приключения Кроша через торрент бесплатно!!
    Комментировать посты могут только пользователи прошедшие не сложную регистрацию
    Показать сообщения:    


    Приключения Кроша через торрент
    Скачать бесплатно Приключения Кроша
    Приключения Кроша скачать торрент
    Приключения Кроша смотреть онлайн
    Cкачать фильм Приключения Кроша бесплатно
    Приключения Кроша скачать торрент в хорошем качестве
    Приключения Кроша смотреть онлайн бесплатно в хорошем качестве
    Вы не можете начинать темы
    Вы не можете отвечать на сообщения
    Вы не можете редактировать свои сообщения
    Вы не можете удалять свои сообщения
    Вы не можете голосовать в опросах
    Вы не можете прикреплять файлы к сообщениям
    Вы можете скачивать файлы