Достать ножи: Стеклянная луковица

MVO

Добыча

Дубляж

Уэнсдэй

1 сезон

Тор

Дубляж

13 клиническая

1 сезон

Жестокая ночь

MVO

Одни из нас

1 сезон

Deluxe

pack

Рекомендуем

30

Пиратка

ВАЖНО

ВАЖНО

Ghostwire

Пиратка

jed

RePack

nioh2

RePack

RDR2

RePack

NEED FOR SPEED™ PAYBACK

RePack

скачать торрент

Кинопоиск HD

Острые козырьки 6 сезон

6 сезон

FAR CRY 6

RePack

скачать торрент

Лицензия

скачать торрент

MVO

1

1 сезон

скачать торрент

1 сезон

скачать торрент

Лицензия

  

Бархатная бензопила / Velvet Buzzsaw (Дэн Гилрой) [2019, ужасы, триллер, комедия, UHD WEBRip 2160p] Дубляж [Невафильм]

Бархатная бензопила через торрент piratbit.org

Размер: 14.53 GB | Добавлен: 3 года 11 мес. назад | Торрент скачан:143 раза
Смотреть онлайн | Скачать | Поддержите нас   

06-02-2019 09:59 Бархатная бензопила Скачать торрент  

Бархатная бензопила / Velvet Buzzsaw««From the writer and director of 'Nightcrawler'»»

Год выпуска: 2019
Страна: США
Жанр: ужасы, триллер, комедия, криминал
Продолжительность: 01:51:56
Перевод: Дублированный | Невафильм
Субтитры: Русские (Форсированные, полные), английские (полные, полные SDH)
Режиссер: Дэн Гилрой
В ролях:

Джейк Джилленхол (Morf Vandewalt), Джон Малкович (Piers), Билли Магнуссен (Bryson), Тони Коллетт (Gretchen), Наталия Дайер (Coco), Рене Руссо (Rhodora Haze), Давид Диггс, Том Стёрридж (Jon Dondon), Зэйв Эштон (Josephina), Питер Гадиот (Ricky Blane), Пасэй Пау (Attorney), Пэт Хили (Actor)
Описание:
Мир современного искусства населяют самые разные персонажи: ценители, знатоки, художники, воры, обманщики. Все они считают, что знают и любят настоящее искусство. Однажды они сталкиваются с чем-то необычным - потрясающими картинками пожилого художника-затворника. Он словно вложил в свои работы тайный смысл. Герои с жадностью кидаются на полотна, но быстро понимают: за краской и фигурами скрывается нечто зловещее.
Рейтинг:

Качество: UHD WEBRip 2160p
Формат: MKV
Видео: HEVC HDR, 17.5 Мбит/с, 3840x2076, 23.976 Кадр/с, 10 бит
Аудио №1: Russian / Dolby Digital Plus / 5.1 / 48 kHz / 640 kbps - Дубляж Невафильм
Аудио №2: English / Dolby Digital Plus with Dolby Atmos / 5.1 / 48 kHz / 448 kbps - Оригинал

General
Unique ID : 7046065629304181389044940505536938805 (0x54D05DB5E88AACCCD0BB2960EA24335)
Complete name : X:\Releases\Velvet.Buzzsaw.2019.WEBRip.HEVC.HDR.2160p.mkv
Format : Matroska
Format version : Version 4
File size : 14.5 GiB
Duration : 1 h 51 min
Overall bit rate : 18.6 Mb/s
Encoded date : UTC 2019-02-06 08:23:23
Writing application : mkvmerge v30.1.0 ('Forever And More') 64-bit
Writing library : libebml v1.3.6 + libmatroska v1.4.9
Attachments : poster.jpg

Video
ID : 1
Format : HEVC
Format/Info : High Efficiency Video Coding
Commercial name : HDR10
Format profile : Main 10@L5.1@High
Codec ID : V_MPEGH/ISO/HEVC
Duration : 1 h 51 min
Bit rate : 17.5 Mb/s
Width : 3 840 pixels
Height : 2 076 pixels
Display aspect ratio : 1.85:1
Frame rate mode : Constant
Frame rate : 24.000 FPS
Color space : YUV
Chroma subsampling : 4:2:0 (Type 2)
Bit depth : 10 bits
Bits/(Pixel*Frame) : 0.091
Stream size : 13.7 GiB (94%)
Writing library : x265 3.0+1-ed72af837053:[Linux][GCC 8.2.0][64 bit] 10bit
Encoding settings : cpuid=1111039 / frame-threads=6 / wpp / no-pmode / no-pme / no-psnr / no-ssim / log-level=2 / input-csp=1 / input-res=3840x2076 / interlace=0 / total-frames=0 / level-idc=51 / high-tier=1 / uhd-bd=0 / ref=4 / no-allow-non-conformance / repeat-headers / annexb / no-aud / no-hrd / info / hash=0 / no-temporal-layers / open-gop / min-keyint=24 / keyint=250 / gop-lookahead=0 / bframes=11 / b-adapt=2 / b-pyramid / bframe-bias=0 / rc-lookahead=25 / lookahead-slices=4 / scenecut=40 / radl=0 / no-splice / no-intra-refresh / ctu=64 / min-cu-size=8 / rect / no-amp / max-tu-size=32 / tu-inter-depth=1 / tu-intra-depth=1 / limit-tu=0 / rdoq-level=2 / dynamic-rd=0.00 / no-ssim-rd / signhide / no-tskip / nr-intra=0 / nr-inter=0 / no-constrained-intra / no-strong-intra-smoothing / max-merge=3 / limit-refs=3 / limit-modes / me=2 / subme=6 / merange=57 / temporal-mvp / weightp / no-weightb / no-analyze-src-pics / deblock=-3:-3 / no-sao / no-sao-non-deblock / rd=4 / no-early-skip / no-rskip / no-fast-intra / no-tskip-fast / no-cu-lossless / no-b-intra / no-splitrd-skip / rdpenalty=0 / psy-rd=4.00 / psy-rdoq=10.00 / no-rd-refine / no-lossless / cbqpoffs=0 / crqpoffs=0 / rc=crf / crf=20.5 / qcomp=0.60 / qpstep=1 / stats-write=0 / stats-read=0 / vbv-maxrate=160000 / vbv-bufsize=160000 / vbv-init=0.9 / crf-max=0.0 / crf-min=0.0 / ipratio=1.25 / pbratio=1.20 / aq-mode=3 / aq-strength=0.70 / no-cutree / zone-count=0 / no-strict-cbr / qg-size=32 / rc-grain / qpmax=69 / qpmin=0 / const-vbv / sar=1 / overscan=0 / videoformat=5 / range=0 / colorprim=9 / transfer=16 / colormatrix=9 / chromaloc=1 / chromaloc-top=2 / chromaloc-bottom=2 / display-window=0 / master-display=G(13250,34500)B(7500,3000)R(34000,16000)WP(15635,16450)L(40000000,50) / max-cll=4375,1129 / min-luma=0 / max-luma=1023 / log2-max-poc-lsb=8 / vui-timing-info / vui-hrd-info / slices=1 / no-opt-qp-pps / no-opt-ref-list-length-pps / no-multi-pass-opt-rps / scenecut-bias=0.05 / no-opt-cu-delta-qp / no-aq-motion / hdr / hdr-opt / no-dhdr10-opt / no-idr-recovery-sei / analysis-reuse-level=5 / scale-factor=0 / refine-intra=0 / refine-inter=0 / refine-mv=0 / refine-ctu-distortion=0 / no-limit-sao / ctu-info=0 / no-lowpass-dct / refine-analysis-type=0 / copy-pic=1 / max-ausize-factor=1.0 / no-dynamic-refine / no-single-sei / no-hevc-aq / qp-adaptation-range=1.00
Default : Yes
Forced : No
Color range : Limited
Color primaries : BT.2020
Transfer characteristics : PQ
Matrix coefficients : BT.2020 non-constant
Mastering display color pri : Display P3
Mastering display luminance : min: 0.0050 cd/m2, max: 4000 cd/m2
Maximum Content Light Level : 4375 cd/m2
Maximum Frame-Average Light : 1129 cd/m2

Audio #1
ID : 2
Format : E-AC-3
Format/Info : Enhanced AC-3
Commercial name : Dolby Digital Plus
Codec ID : A_EAC3
Duration : 1 h 51 min
Bit rate mode : Constant
Bit rate : 640 kb/s
Channel(s) : 6 channels
Channel layout : L R C LFE Ls Rs
Sampling rate : 48.0 kHz
Frame rate : 31.250 FPS (1536 SPF)
Compression mode : Lossy
Stream size : 512 MiB (3%)
Title : Дубляж
Language : Russian
Service kind : Complete Main
Default : Yes
Forced : No

Audio #2
ID : 3
Format : E-AC-3 JOC
Format/Info : Enhanced AC-3 with Joint Object Coding
Commercial name : Dolby Digital Plus with Dolby Atmos
Codec ID : A_EAC3
Duration : 1 h 51 min
Bit rate mode : Constant
Bit rate : 448 kb/s
Channel(s) : 6 channels
Channel layout : L R C LFE Ls Rs
Sampling rate : 48.0 kHz
Frame rate : 31.250 FPS (1536 SPF)
Compression mode : Lossy
Stream size : 359 MiB (2%)
Language : English
Service kind : Complete Main
Default : No
Forced : No
Complexity index : 16
Number of dynamic objects : 15
Bed channel count : 1 channel
Bed channel configuration : LFE

Text #1
ID : 4
Format : UTF-8
Codec ID : S_TEXT/UTF8
Codec ID/Info : UTF-8 Plain Text
Duration : 1 h 51 min
Bit rate : 2 b/s
Count of elements : 40
Stream size : 1.80 KiB (0%)
Title : Форсированные
Language : Russian
Default : Yes
Forced : No

Text #2
ID : 5
Format : UTF-8
Codec ID : S_TEXT/UTF8
Codec ID/Info : UTF-8 Plain Text
Duration : 1 h 51 min
Bit rate : 89 b/s
Count of elements : 1354
Stream size : 72.8 KiB (0%)
Title : Полные
Language : Russian
Default : No
Forced : No

Text #3
ID : 6
Format : UTF-8
Codec ID : S_TEXT/UTF8
Codec ID/Info : UTF-8 Plain Text
Duration : 1 h 44 min
Bit rate : 56 b/s
Count of elements : 1313
Stream size : 43.5 KiB (0%)
Title : English
Language : English
Default : No
Forced : No

Text #4
ID : 7
Format : UTF-8
Codec ID : S_TEXT/UTF8
Codec ID/Info : UTF-8 Plain Text
Duration : 1 h 46 min
Bit rate : 63 b/s
Count of elements : 1518
Stream size : 49.2 KiB (0%)
Title : English (SDH)
Language : English
Default : No
Forced : No



Скачать Бархатная бензопила через торрент https://b.radikal.ru/b37/1902/d9/414453698802.png Скачать, смотреть онлайн Бархатная бензопила бесплантно в хорошем качестве Описание: Мир современного искусства населяют самые разные персонажи: ценители, знатоки, художники, воры, обманщики. Все они считают, что ... 10 10 4
Торрент: Зарегистрирован [2019-02-06 09:59] · скачан: 143 раз
Статус: √ проверено
Размер: 14.53 GB
Как cкачать? Как скачать Бархатная бензопила через торрент | UTorrent

% Раздел Тема Автор DL S | L
Фильмы (WEB-DL 720p, 1080p) [ 5.15 GB ] Бархатная бензопила / Velvet Buzzsaw | DUB | 1080p bober100 Скачать
2 | 0
Фильмы (WEB-DL 720p, 1080p) [ 4.15 GB ] Бархатная бензопила / Velvet Buzzsaw | DUB | 1080p bober100 Скачать
1 | 1
Фильмы 2019-2020 [DVDrip, WEB-DLRip, HDrip] (DUB, MVO) [ 1.46 GB ] Бархатная бензопила / Velvet Buzzsaw | DUB | DLRip bober100 Скачать
1 | 0
Фильмы 2019-2020 [DVDrip, WEB-DLRip, HDrip] (DUB, MVO) [ 2.34 GB ] Бархатная бензопила / Velvet Buzzsaw | DUB | DLRip-AVC bober100 Скачать
1 | 0
Фильмы (WEB-DL 720p, 1080p) [ 2.47 GB ] Бархатная бензопила / Velvet Buzzsaw | DUB | 720p bober100 Скачать
1 | 0

28-11-2019 20:33  


Отключить вcю реклaмy на сайте, в т.ч. и в плеере онлайн просмотра!

05-03-2019 08:01 Бархатная бензопила Скачать торрент  

Интересный фильм. Держит.



    Дорогой пользователь! Огромная просьба, поблагодарите релизера, оцените раздачу и оставьте свои комментарий, если Вы скачали Бархатная бензопила через торрент бесплатно!!
    Комментировать посты могут только пользователи прошедшие не сложную регистрацию
    Показать сообщения:    


    Бархатная бензопила через торрент
    Скачать бесплатно Бархатная бензопила
    Бархатная бензопила скачать торрент
    Бархатная бензопила смотреть онлайн
    Cкачать фильм Бархатная бензопила бесплатно
    Бархатная бензопила скачать торрент в хорошем качестве
    Бархатная бензопила смотреть онлайн бесплатно в хорошем качестве
    Вы не можете начинать темы
    Вы не можете отвечать на сообщения
    Вы не можете редактировать свои сообщения
    Вы не можете удалять свои сообщения
    Вы не можете голосовать в опросах
    Вы не можете прикреплять файлы к сообщениям
    Вы можете скачивать файлы
    Бархатная бензопила / Velvet Buzzsaw [2019, ужасы, триллер, комедия, UHD WEBRip 2160p] Дубляж [Невафильм] смотреть онлайн, скачать торрент picoco.icu