Лицензия

MVO

1

1 сезон

Лицензия

Лицензия

13

MVO

1 сезон

Deluxe Edition

pack

Рекомендуем

30

Repack

ВАЖНО

ВАЖНО

Ghostwire

RePack

jed

RePack

fifa19

RePack

RDR2

RePack

NEED FOR SPEED™ PAYBACK

RePack

Кинопоиск HD

 Острые козырьки 6 сезон

6 сезон

FAR CRY 6

RePack

Лицензия

MVO

1

1 сезон

1 сезон

Лицензия

  

На семи ветрах (Станислав Ростоцкий) [1962, СССР, драма, военный, DVDRip от AVP Studio]

На семи ветрах через торрент piratbit.org

Размер: 1.46 GB | Добавлен: 3 года 7 мес. назад | Торрент скачан:26 раз
Смотреть онлайн На семи ветрах | Скачать   

07-02-2019 08:26 На семи ветрах Скачать торрент  

На семи ветрах
Страна: СССР
Производство: Киностудия им. М. Горького

Жанр: драма
Год выпуска: 1962
Продолжительность: 01:40:13

Перевод: Не требуется
Cубтитры: нет
Оригинальная аудиодорожка: русский

Режиссер: Станислав Ростоцкий

В ролях:
Лариса Лужина, Вячеслав Тихонов, Вячеслав Невинный, Михаил Трояновский, Софья Пилявская, Маргарита Струнова, Лидия Савченко, Клара Лучко, Светлана Дружинина, Людмила Чурсина, Маргарита Жарова, Владимир Заманский, Леонид Быков, Валентин Печников, Анатолий Ромашин, Анатолий Игнатьев, Бимболат (Бибо) Ватаев, Виктор Павлов...
Об актёрах подробней

Описание:
Простая русская девушка Светлана приехала в захолустный городок к своему любимому. Но началась война, Игорь не встретил Светлану, а она решила остаться: ждать его возвращения и конца войны. Она ждала его всю войну там, куда он обязательно должен был вернуться. В его доме. В доме "на семи ветрах". Вскоре в этом доме разместилась редакция фронтовой газеты. Светлана была душой коллектива. А когда немцы были на подходе к городу, дом превратился в госпиталь, а Светлана стала бойцом...

Источник: DVD5 R5
Качество видео: DVDRip
Формат видео: AVI

Видео: 704х528 (4:3), 25 fps, XviD ~ 1691 kbps avg, 0.182 bit/pixel
Аудио: 48 kHz, Dolby Digital AC3 5.1, 384 kbps

Раздача от:
Общее
Полное имя : Na.semi.vetrah.1962.DVDRip_[New-team]_by_AVP_Studio.avi
Формат : AVI
Формат/Информация : Audio Video Interleave
Размер файла : 1,46 Гбайт
Продолжительность : 1 ч. 40 м.
Общий поток : 2085 Кбит/сек
Программа кодирования : VirtualDubModRus 1.5.10.2 (build 2540/release)
Библиотека кодирования : VirtualDubMod build 2540/release

Видео
Идентификатор : 0
Формат : MPEG-4 Visual
Профиль формата : Advanced Simple@L5
Настройки формата : BVOP1 / Custom Matrix
Параметр BVOP формата : 1
Параметр QPel формата : Нет
Параметр GMC формата : Без точки перехода
Параметр матрицы формата : Выборочная
Идентификатор кодека : XVID
Идентификатор кодека/Подсказка : XviD
Продолжительность : 1 ч. 40 м.
Битрейт : 1691 Кбит/сек
Ширина : 704 пикселя
Высота : 528 пикселей
Соотношение сторон : 4:3
Частота кадров : 25,000 кадров/сек
Цветовое пространство : YUV
Субдискретизация насыщенности : 4:2:0
Битовая глубина : 8 бит
Тип развёртки : Прогрессивная
Метод сжатия : С потерями
Бит/(Пиксели*Кадры) : 0.182
Размер потока : 1,18 Гбайт (81%)
Библиотека кодирования : XviD 73

Аудио
Идентификатор : 1
Формат : AC-3
Формат/Информация : Audio Coding 3
Коммерческое название : Dolby Digital
Идентификатор кодека : 2000
Продолжительность : 1 ч. 40 м.
Вид битрейта : Постоянный
Битрейт : 384 Кбит/сек
Каналы : 6 каналов
Channel layout : L R C LFE Ls Rs
Частота : 48,0 КГц
Частота кадров : 31,250 кадров/сек (1536 SPF)
Битовая глубина : 16 бит
Метод сжатия : С потерями
Размер потока : 275 Мбайт (18%)
Выравнивание : Соединение по промежуткам
Продолжительность промежутка : 40 мс. (1,00 видеокадр)
Время предзагрузки промежутка : 512 мс



Скачать На семи ветрах через торрент https://d.radikal.ru/d13/1912/d7/323364f5b847.png Скачать, смотреть онлайн На семи ветрах бесплантно в хорошем качестве Описание:Простая русская девушка Светлана приехала в захолустный городок к своему любимому. Но началась война, Игорь не встретил Светлану, ... 10 10 1
Info! Золотая раздача, скачанное не засчитывается.
Торрент: Зарегистрирован [2019-02-07 08:26] · скачан: 26 раз
Статус: √ проверено
Размер: 1.46 GB
Как cкачать? Как скачать На семи ветрах через торрент | UTorrent

% Раздел Тема Автор DL S | L
Кино СССР [ 1.46 GB ] На семи ветрах | | DVDRip-AVC от AVP Studio AVP Studio Скачать
1 | 0
Кино СССР [ 746 MB ] На семи ветрах | | DVDRip от AVP Studio AVP Studio Скачать
1 | 0

28-11-2019 20:33  

Отключить вcю реклaмy на сайте

    Дорогой пользователь! Огромная просьба, поблагодарите релизера, оцените раздачу и оставьте свои комментарий, если Вы скачали На семи ветрах через торрент бесплатно!!
    Комментировать посты могут только пользователи прошедшие не сложную регистрацию
    Показать сообщения:    


    На семи ветрах через торрент
    Скачать бесплатно На семи ветрах
    На семи ветрах скачать торрент
    На семи ветрах смотреть онлайн
    Cкачать фильм На семи ветрах бесплатно
    На семи ветрах скачать торрент в хорошем качестве
    На семи ветрах смотреть онлайн бесплатно в хорошем качестве
    Вы не можете начинать темы
    Вы не можете отвечать на сообщения
    Вы не можете редактировать свои сообщения
    Вы не можете удалять свои сообщения
    Вы не можете голосовать в опросах
    Вы не можете прикреплять файлы к сообщениям
    Вы можете скачивать файлы