Достать ножи: Стеклянная луковица

MVO

Добыча

Дубляж

Уэнсдэй

1 сезон

Тор

Дубляж

13 клиническая

1 сезон

Жестокая ночь

MVO

Одни из нас

1 сезон

Deluxe

pack

Рекомендуем

30

Пиратка

ВАЖНО

ВАЖНО

Ghostwire

Пиратка

jed

RePack

nioh2

RePack

RDR2

RePack

NEED FOR SPEED™ PAYBACK

RePack

скачать торрент

Кинопоиск HD

Острые козырьки 6 сезон

6 сезон

FAR CRY 6

RePack

скачать торрент

Лицензия

скачать торрент

MVO

1

1 сезон

скачать торрент

1 сезон

скачать торрент

Лицензия

  

Ничего хорошего в отеле «Эль рояль» / Bad Times at the El Royale (Дрю Годдард) [2018, триллер, драма, криминал, UHD BDRemux 2160p] Дубляж + MVO + AVO

Ничего хорошего в отеле «Эль рояль» через торрент piratbit.org

Размер: 56.4 GB | Добавлен: 3 года 11 мес. назад | Торрент скачан:27 раз
Смотреть онлайн | Скачать | Поддержите нас   

09-02-2019 10:44 Ничего хорошего в отеле «Эль рояль» Скачать торрент  

Ничего хорошего в отеле «Эль рояль» / Bad Times at the El Royale


Год выпуска: 2018
Страна: США
Жанр: триллер, драма, криминал, детектив
Продолжительность: 02:21:37
Перевод: Дублированный, профессиональный многоголосый, авторский
Субтитры: Русские (форс., полные), Английские (полные, SDH)
Режиссер: Дрю Годдард
В ролях:

Джефф Бриджес (Father Daniel Flynn / Dock O'Kelly), Синтиа Эриво (Darlene Sweet), Дакота Джонсон (Emily Summerspring), Джон Хэмм (Laramie Seymour Sullivan / Dwight Broadbeck), Крис Хемсворт (Billy Lee), Кэйли Спэни (Rose Summerspring), Льюис Пуллман (Miles Miller), Ник Офферман (Felix O'Kelly), Ксавье Долан (Buddy Sunday), Шей Уигэм (Dr. Woodbury Laurence), Марк О’Брайэн (Larsen Rogers), Чарльз Халфорд (Sammy Wilds)
Описание:
Семь незнакомцев, у каждого из которых есть своя тайна, встречаются в заброшенном отеле «Эль Рояль» на озере Тахо. И этой ночью у каждого будет шанс на искупление... прежде чем всё пойдет к чертям.
Рейтинг:

MPAA: R - Лицам до 17 лет обязательно присутствие взрослого
Качество: UHD BDRemux 2160p
Формат: MKV
Видео: MPEG-H HEVC HDR Video, 46045 Кбит/с, 3840x2160, 23.976 кадр/с
Аудио 1: Russian DTS / 5.1 / 48 kHz / 768 kbps / 24-bit |Дубляж, Blu-Ray|
Аудио 2: Russian AC3 / 2.0 / 48 kHz / 192 kbps / 16-bit |MVO, HDRezka|
Аудио 3: Russian DTS-HD Master Audio / 7.1 / 48 kHz / 4907 kbps / 24-bit (DTS Core: 5.1 / 48 kHz / 1509 kbps / 24-bit) |М. Яроцкий|
Аудио 4: :f_56: English Dolby TrueHD/Atmos Audio / 7.1-Atmos / 48 kHz / 5083 kbps / 24-bit |original|
Аудио 5: :f_56: English AC3 Core: 5.1 / 48 kHz / 640 kbps |original|
Навигация по главам: есть

Общее
Уникальный идентификатор : 281139627095271720131115973169815046038 (0xD38185CB94FCA357507D814CD7794796)
Полное имя : H:\UHD\Ничего хорошего в отеле «Эль рояль».2018.UHD.BluRay.Remux.2160p.mkv
Формат : Matroska
Версия формата : Version 4
Размер файла : 56,4 Гбайт
Продолжительность : 2 ч. 21 м.
Режим общего битрейта : Переменный
Общий поток : 57,0 Мбит/сек
Дата кодирования : UTC 2019-02-09 08:23:28
Программа кодирования : mkvmerge v30.1.0 ('Forever And More') 64-bit
Библиотека кодирования : libebml v1.3.6 + libmatroska v1.4.9
Attachments : poster.jpg

Видео
Идентификатор : 1
Формат : HEVC
Формат/Информация : High Efficiency Video Coding
Коммерческое название : HDR10
Профиль формата : Main 10@L5.1@High
Идентификатор кодека : V_MPEGH/ISO/HEVC
Продолжительность : 2 ч. 21 м.
Битрейт : 46,0 Мбит/сек
Ширина : 3840 пикселей
Высота : 2160 пикселей
Соотношение сторон : 16:9
Режим частоты кадров : Постоянный
Частота кадров : 23,976 (24000/1001) кадра/сек
Цветовое пространство : YUV
Субдискретизация насыщенности : 4:2:0 (Type 2)
Битовая глубина : 10 бит
Бит/(Пиксели*Кадры) : 0.231
Размер потока : 45,5 Гбайт (81%)
Библиотека кодирования : ATEME Titan File 3.9.0 (4.9.0.0)
Default : Да
Forced : Нет
Цветовой диапазон : Limited
Основные цвета : BT.2020
Характеристики трансфера : PQ
Коэффициенты матрицы : BT.2020 non-constant
MasteringDisplay_ColorPrimaries : Display P3
MasteringDisplay_Luminance : min: 0.0050 cd/m2, max: 1000 cd/m2

Аудио #1
Идентификатор : 2
Формат : DTS
Формат/Информация : Digital Theater Systems
Идентификатор кодека : A_DTS
Продолжительность : 2 ч. 21 м.
Вид битрейта : Постоянный
Битрейт : 768 Кбит/сек
Каналы : 6 каналов
Channel layout : C L R Ls Rs LFE
Частота : 48,0 КГц
Частота кадров : 93,750 кадра/сек (512 SPF)
Битовая глубина : 24 бит
Метод сжатия : С потерями
Размер потока : 778 Мбайт (1%)
Заголовок : Дубляж, Blu-Ray
Язык : Russian
Default : Да
Forced : Нет

Аудио #2
Идентификатор : 3
Формат : AC-3
Формат/Информация : Audio Coding 3
Коммерческое название : Dolby Digital
Идентификатор кодека : A_AC3
Продолжительность : 2 ч. 21 м.
Вид битрейта : Постоянный
Битрейт : 192 Кбит/сек
Каналы : 2 канала
Channel layout : L R
Частота : 48,0 КГц
Частота кадров : 31,250 кадров/сек (1536 SPF)
Битовая глубина : 16 бит
Метод сжатия : С потерями
Размер потока : 194 Мбайт (0%)
Заголовок : MVO, HDRezka
Язык : Russian
ServiceKind/String : Complete Main
Default : Нет
Forced : Нет

Аудио #3
Идентификатор : 4
Формат : DTS ES XLL
Формат/Информация : Digital Theater Systems
Коммерческое название : DTS-HD Master Audio
Идентификатор кодека : A_DTS
Продолжительность : 2 ч. 21 м.
Вид битрейта : Переменный
Битрейт : 4907 Кбит/сек
Каналы : 8 каналов
Channel layout : C L R Ls Rs LFE Lb Rb
Частота : 48,0 КГц
Частота кадров : 93,750 кадра/сек (512 SPF)
Битовая глубина : 24 бит
Метод сжатия : Без потерь
Размер потока : 4,85 Гбайт (9%)
Заголовок : М. Яроцкий
Язык : Russian
Default : Нет
Forced : Нет

Аудио #4
Идентификатор : 5
Формат : MLP FBA 16-ch
Формат/Информация : Meridian Lossless Packing FBA with 16-channel presentation
Коммерческое название : Dolby TrueHD with Dolby Atmos
Идентификатор кодека : A_TRUEHD
Продолжительность : 2 ч. 21 м.
Вид битрейта : Переменный
Битрейт : 4443 Кбит/сек
Максимальный битрейт : 8373 Кбит/сек
Каналы : 8 каналов
Channel layout : L R C LFE Ls Rs Lb Rb
Частота : 48,0 КГц
Частота кадров : 1200,000 кадров/сек (40 SPF)
Метод сжатия : Без потерь
Размер потока : 4,40 Гбайт (8%)
Язык : English
Default : Нет
Forced : Нет
Number of dynamic objects : 13
Bed channel count : 1 канал
Bed channel configuration : LFE

Аудио #5
Идентификатор : 6
Формат : AC-3
Формат/Информация : Audio Coding 3
Коммерческое название : Dolby Digital
Идентификатор кодека : A_AC3
Продолжительность : 2 ч. 21 м.
Вид битрейта : Постоянный
Битрейт : 640 Кбит/сек
Каналы : 6 каналов
Channel layout : L R C LFE Ls Rs
Частота : 48,0 КГц
Частота кадров : 31,250 кадров/сек (1536 SPF)
Битовая глубина : 16 бит
Метод сжатия : С потерями
Размер потока : 648 Мбайт (1%)
Язык : English
ServiceKind/String : Complete Main
Default : Нет
Forced : Нет

Текст #1
Идентификатор : 7
Формат : UTF-8
Идентификатор кодека : S_TEXT/UTF8
Идентификатор кодека/Информация : UTF-8 Plain Text
Продолжительность : 2 ч. 17 м.
Битрейт : 0 бит/сек
ElementCount : 11
Размер потока : 329 байт (0%)
Заголовок : forced
Язык : Russian
Default : Да
Forced : Нет

Текст #2
Идентификатор : 8
Формат : UTF-8
Идентификатор кодека : S_TEXT/UTF8
Идентификатор кодека/Информация : UTF-8 Plain Text
Продолжительность : 2 ч. 17 м.
Битрейт : 57 бит/сек
ElementCount : 1316
Размер потока : 57,6 Кбайт (0%)
Заголовок : full
Язык : Russian
Default : Нет
Forced : Нет

Текст #3
Идентификатор : 9
Формат : UTF-8
Идентификатор кодека : S_TEXT/UTF8
Идентификатор кодека/Информация : UTF-8 Plain Text
Продолжительность : 2 ч. 13 м.
Битрейт : 41 бит/сек
ElementCount : 1444
Размер потока : 40,2 Кбайт (0%)
Заголовок : full
Язык : English
Default : Нет
Forced : Нет

Текст #4
Идентификатор : 10
Формат : UTF-8
Идентификатор кодека : S_TEXT/UTF8
Идентификатор кодека/Информация : UTF-8 Plain Text
Продолжительность : 2 ч. 18 м.
Битрейт : 46 бит/сек
ElementCount : 1711
Размер потока : 46,7 Кбайт (0%)
Заголовок : SDH
Язык : English
Default : Нет
Forced : Нет

Меню
00:00:00.000 : :Chapter 01
00:04:19.592 : :Chapter 02
00:19:21.994 : :Chapter 03
00:34:32.737 : :Chapter 04
00:49:24.711 : :Chapter 05
00:51:19.868 : :Chapter 06
01:16:01.473 : :Chapter 07
01:37:13.369 : :Chapter 08
02:03:56.720 : :Chapter 09
02:14:09.041 : :Chapter 10
02:15:45.428 : :Chapter 11



Скачать Ничего хорошего в отеле «Эль рояль» через торрент https://a.radikal.ru/a03/1901/b9/3317769ad5cc.png Скачать, смотреть онлайн Ничего хорошего в отеле «Эль рояль» бесплантно в хорошем качестве Описание: Семь незнакомцев, у каждого из которых есть своя тайна, встречаются в заброшенном отеле «Эль Рояль» на озере Тахо. И этой ночью у ... 10 10 2
Торрент: Зарегистрирован [2019-02-09 10:44] · скачан: 27 раз
Статус: √ проверено
Размер: 56.4 GB
Как cкачать? Как скачать Ничего хорошего в отеле «Эль рояль» через торрент | UTorrent

28-11-2019 20:33  


Отключить вcю реклaмy на сайте, в т.ч. и в плеере онлайн просмотра!

    Дорогой пользователь! Огромная просьба, поблагодарите релизера, оцените раздачу и оставьте свои комментарий, если Вы скачали Ничего хорошего в отеле «Эль рояль» через торрент бесплатно!!
    Комментировать посты могут только пользователи прошедшие не сложную регистрацию
    Показать сообщения:    


    Ничего хорошего в отеле «Эль рояль» через торрент
    Скачать бесплатно Ничего хорошего в отеле «Эль рояль»
    Ничего хорошего в отеле «Эль рояль» скачать торрент
    Ничего хорошего в отеле «Эль рояль» смотреть онлайн
    Cкачать фильм Ничего хорошего в отеле «Эль рояль» бесплатно
    Ничего хорошего в отеле «Эль рояль» скачать торрент в хорошем качестве
    Ничего хорошего в отеле «Эль рояль» смотреть онлайн бесплатно в хорошем качестве
    Вы не можете начинать темы
    Вы не можете отвечать на сообщения
    Вы не можете редактировать свои сообщения
    Вы не можете удалять свои сообщения
    Вы не можете голосовать в опросах
    Вы не можете прикреплять файлы к сообщениям
    Вы можете скачивать файлы
    Ничего хорошего в отеле «Эль рояль» / Bad Times at the El Royale [2018, триллер, драма, криминал, UHD BDRemux 2160p] Дубляж + MVO + AVO смотреть онлайн, скачать торрент picoco.icu