1 сезон

3 сезон

iTunes

1

iTunes

DUB Netflix

iTunes

13

1 сезон

RePack

30

Deluxe

pack

Легкие деньги

ВАЖНО

ИГРА 18+

pack

RePack

MK11

RePack

jed

RePack

fifa19

RePack

RDR2

RePack

NEED FOR SPEED™ PAYBACK

4 сезон

9 сезон

Бесстыжие 9 сезон

Все сериалы

все сериалы на PB.wtf

RePack

FAR CRY 5

Anonymous, доброй ночи, мы не успеваем до 1 числа собрать деньги на оплату серверов, помогите нам пожалуйста в это трудное время. В качестве благодарности мы отключим Вам всю рекламу на сайте (укажите свой ник в строку Ваше имя)!

×
  
Magnet ссылка

ИП Пирогова / Сезон: 1 / Серии: 1-20 из 20 (Антон Маслов) [2019, Комедия, WEB-DL 720p] piratbit.org

ИП Пирогова через торрент piratbit.org

Размер: 9.32 GB | Добавлен: 2 года 3 мес. назад | Торрент скачан:152 раза
Скачать  

09-02-2019 20:53 ИП Пирогова Скачать торрент  

ИП Пирогова Год выпуска: 2019
Страна: Россия
Жанр: Комедия
Продолжительность: ~ 00:25:00
Субтитры: отсутствуют

Режиссер: Антон Маслов



В ролях:

Елена Подкаминская, Данила Дунаев, Василина Юсковец, Елена Валюшкина, Алиса Феоктистова, Галина Безрук

Описание:

По сюжету, жизнь Веры размеренно катится по рельсам семейного счастья, пока измена мужа не заводит эти рельсы в тупик. Выставив неверного супруга из дома, Вера лишается не только доверия к мужчинам, но и средств к существованию. Тут самое время впасть в депрессию, но врожденная предприимчивость и талант к кондитерскому искусству внезапно открывают для Веры мир индивидуального предпринимательства. Оказалось, сладкий бизнес способен приносить хороший доход. Теперь вчерашней домохозяйке предстоит освоиться в роли бизнес-вумен, развить свой «сТОРТап» и заодно наладить личную жизнь.

Качество: WEB-DL 720p
Формат: MKV

Видео: MPEG-4 AVC, ~ 2500 Кбит/с, 1280x720
Аудио: AC3, 2 ch, 192 Кбит/с
скриншот  скриншот  скриншот  скриншот  

Общее
Уникальный идентификатор : 202599126881420220861987324872918919120 (0x986B2C2A0F01C0F88341A6CB011167D0)
Полное имя : D:\IP.Pirogova.(2019).WEB-DL.720p.ExKinoRay\IP.Pirogova.e01.(2019).WEB-DL.720p.ExKinoRay.mkv
Формат : Matroska
Версия формата : Version 2
Размер файла : 533 Мбайт
Продолжительность : 26 м. 52 с.
Режим общего битрейта : Постоянный
Общий поток : 2774 Кбит/сек
Дата кодирования : UTC 2019-02-09 22:17:28
Программа кодирования : mkvmerge v5.8.0 ('No Sleep / Pillow') built on Sep 2 2012 15:37:04
Библиотека кодирования : libebml v1.2.3 + libmatroska v1.3.0

Видео
Идентификатор : 1
Формат : AVC
Формат/Информация : Advanced Video Codec
Профиль формата : Baseline@L4
Параметр CABAC формата : Нет
Параметр RefFrames формата : 4 кадра
Параметр GOP формата : M=1, N=50
Идентификатор кодека : V_MPEG4/ISO/AVC
Продолжительность : 26 м. 52 с.
Вид битрейта : Постоянный
Битрейт : 2600 Кбит/сек
Ширина : 1280 пикселей
Высота : 720 пикселей
Соотношение сторон : 16:9
Режим частоты кадров : Постоянный
Частота кадров : 25,000 кадров/сек
Стандарт вещания : PAL
Цветовое пространство : YUV
Субдискретизация насыщенности : 4:2:0
Битовая глубина : 8 бит
Тип развёртки : Прогрессивная
Бит/(Пиксели*Кадры) : 0.113
Размер потока : 486 Мбайт (91%)
Язык : Russian
Default : Да
Forced : Нет
Цветовой диапазон : Limited
Основные цвета : BT.709
Характеристики трансфера : BT.709
Коэффициенты матрицы : BT.709

Аудио
Идентификатор : 2
Формат : AC-3
Формат/Информация : Audio Coding 3
Расширение режима : CM (complete main)
Параметр Endianness формата : Big
Идентификатор кодека : A_AC3
Продолжительность : 26 м. 52 с.
Вид битрейта : Постоянный
Битрейт : 192 Кбит/сек
Каналы : 2 канала
Расположение каналов : Front: L R
Частота : 48,0 КГц
Частота кадров : 31,250 кадров/сек (1536 spf)
Метод сжатия : С потерями
Размер потока : 36,9 Мбайт (7%)
Язык : Russian
Default : Да
Forced : Нет

Когда раздача ведётся путём добавления новых серий, при каждом добавлении создётся новый торрент. Чтобы начать докачку новой серии, пользователям необходимо сделать следующее:
(1) остановить скачивание,
(2) удалить старый торрент у себя из клиента (старые серии удалять не надо),
(3) скачать новый торрент и запустить его у себя в клиенте вместо старого, при этом указать клиенту путь в старую папку, куда и должно происходить скачивание новых серий.
Ваш клиент при этом должен произвести хеширование (проверку) старой папки (если не производит сам - помогите ему сделать это), и будет докачивать только те серии, которых у вас ещё нет. Старые серии при этом не удаляются, а продолжают раздаваться!
Eсли вы уже удалили старые серии, то предотвратить повторную закачку старых серий можно, отжав галочку в соответсвующих местах при запуске нового торрента. По возможности, желательно не удалять старые серии как можно дольше, чтобы релизер не столько продолжал раздавать старые серии, а смог сконцентрироваться на новых.
piratbit.org



Скачать ИП Пирогова через торрент http://img10.lostpic.net/2019/02/10/2c2484f2765ad3101910a05d60a4b7d8.jpg Скачать фильм ИП Пирогова через торрент бесплантно в хорошем качестве Описание: По сюжету, жизнь Веры размеренно катится по рельсам семейного счастья, пока измена мужа не заводит эти рельсы в тупик. Выставив ... 10 10 11
Торрент: Зарегистрирован [2019-03-20 20:20] · скачан: 152 раз
Статус: √ проверено
Размер: 9.32 GB
Как cкачать? Как скачать ИП Пирогова через торрент | UTorrent

% Раздел Тема Автор DL S | L
TNT serials [ 4.12 GB ] ИП Пирогова / Сезон: 4 / Серии: 1-14 из 20 [2021 WEBRip] bober100 Скачать
2 | 5
TNT serials [ 4.1 GB ] ИП Пирогова / Сезон: 4 / Серии: 1-14 из 20 [2021 WEBRip-AVC] bober100 Скачать
1 | 0
TNT serials [ 2.11 GB ] ИП Пирогова / Сезон: 4 / Серии: 1-4 из 20 [2021 WEBRip 720p] bober100 Скачать
1 | 0
Наши сериалы [ 6.72 GB ] ИП Пирогова / Сезон: 3 / Серии: 1-13 из 13 [2020 WEBRip 720p] bober100 Скачать
1 | 0
Наши сериалы [ 3.82 GB ] ИП Пирогова / Сезон: 3 / Серии: 1-13 из 13 [2020 WEBRip-AVC] bober100 Скачать
1 | 0
Наши сериалы [ 4.45 GB ] ИП Пирогова / Сезон: 3 / Серии: 1-13 из 13 [2020 WEBRip] bober100 Скачать
1 | 0
Наши сериалы [ 9.89 GB ] ИП Пирогова / Сезон: 3 / Серии: 1-13 из 13 [2020 WEBRip 1080p] bober100 Скачать
3 | 0

28-11-2019 20:33  

Отключить всю рекламу на сайте

    Дорогой пользователь! Огромная просьба, поблагодарите релизера, оцените раздачу и оставьте свои комментарий, если Вы скачали ИП Пирогова через торрент бесплатно! Внесите свою лепту в развитие PiratBit!
    Комментировать посты могут только пользователи прошедшие не сложную регистрацию
    Показать сообщения:    

    ИП Пирогова через торрент
    Скачать бесплатно ИП Пирогова
    ИП Пирогова скачать торрент
    ИП Пирогова смотреть онлайн
    Cкачать фильм ИП Пирогова бесплатно
    ИП Пирогова скачать торрент в хорошем качестве
    ИП Пирогова смотреть онлайн бесплатно в хорошем качестве


    Вы не можете начинать темы
    Вы не можете отвечать на сообщения
    Вы не можете редактировать свои сообщения
    Вы не можете удалять свои сообщения
    Вы не можете голосовать в опросах
    Вы не можете прикреплять файлы к сообщениям
    Вы можете скачивать файлы