Достать ножи: Стеклянная луковица

MVO

Добыча

Дубляж

Уэнсдэй

1 сезон

Тор

Дубляж

13 клиническая

1 сезон

Жестокая ночь

MVO

Одни из нас

1 сезон

Deluxe

pack

Рекомендуем

30

Пиратка

ВАЖНО

ВАЖНО

Ghostwire

Пиратка

jed

RePack

nioh2

RePack

RDR2

RePack

NEED FOR SPEED™ PAYBACK

RePack

скачать торрент

Кинопоиск HD

Острые козырьки 6 сезон

6 сезон

FAR CRY 6

RePack

скачать торрент

Лицензия

скачать торрент

MVO

1

1 сезон

скачать торрент

1 сезон

скачать торрент

Лицензия

  

Робин Гуд: Начало / Robin Hood (Отто Батхёрст) [2018, боевик, триллер, приключения, UHD BDRemux 2160p] MVO [HDRezka]

Робин Гуд: Начало через торрент piratbit.org

Размер: 60.57 GB | Добавлен: 3 года 11 мес. назад | Торрент скачан:27 раз
Смотреть онлайн | Скачать | Поддержите нас   

13-02-2019 01:31 Робин Гуд: Начало Скачать торрент  

Робин Гуд: Начало / Robin Hood««The Legend You Know. The Story You Don't»»

Год выпуска: 2018
Страна: США
Жанр: боевик, триллер, приключения
Продолжительность: 01:56:08
Перевод: Профессиональный многоголосый
Субтитры: Английские, испанские
Режиссер: Отто Батхёрст
В ролях:

Тэрон Эджертон (Robin of Loxley), Джейми Фокс (Little John), Бен Мендельсон (Sheriff of Nottingham), Ив Хьюсон (Marian), Джейми Дорнан (Will Scarlet), Тим Минчин (Friar Tuck), Пол Андерсон (Guy of Gisbourne), Ф. Мюррэй Абрахам (Cardinal), Йен Пек (Arch Deacon), Корнелиус Бут (Lord Pembroke), Кэйн Хэдли-Каммингс (Stoker), Скот Гринен (Clayton)
Описание:
Ветеран Крестовых походов Робин из Локсли и его командир-мавр по возвращении в Англию видят, что родная страна погрязла в коррупции. Вместе они решают изменить положение дел и запускают маховики массовой революции, в центре которой окажется загадочный разбойник.
Рейтинг:

MPAA: PG-13 - Детям до 13 лет просмотр не желателен
Качество: UHD BDRemux 2160p
Формат: MKV
Видео: HEVC HDR, 69822 Кбит/с, 3840x2160, 23.976 кадр/с
Аудио: AC-3, 2 ch, 192 kbps (Многоголосый HDRezka)
Аудио: AC-3, 2 ch, 192 kbps (Многоголосый Украинский)
Аудио: Dolby TrueHD, 8 ch, 3786 kbps (Английский Оригинал)
Аудио: AC-3, 6 ch, 640 kbps (Английский Оригинал)
Навигация по главам: есть
Общее
Уникальный идентификатор : 253849929577805478102674129086104827115 (0xBEF9B7D3CAE812C4BF002E6DD3A174EB)
Полное имя : F:\Robin.Hood.2018.UHD.BDRemux.2160p.x265.HDR.10bit.Master5.mkv
Формат : Matroska
Версия формата : Version 4
Размер файла : 60,6 Гбайт
Продолжительность : 1 ч. 56 м.
Режим общего битрейта : Переменный
Общий поток : 74,7 Мбит/сек
Название фильма : Robin.Hood.2018.UHD.BDRemux.2160p.x265.HDR.10bit.Master5
Дата кодирования : UTC 2019-02-15 20:33:00
Программа кодирования : mkvmerge v7.9.0 ('Birds') 64bit
Библиотека кодирования : libebml v1.3.1 + libmatroska v1.4.2

Видео
Идентификатор : 1
Формат : HEVC
Формат/Информация : High Efficiency Video Coding
Коммерческое название : HDR10
Профиль формата : Main 10@L5.1@High
Идентификатор кодека : V_MPEGH/ISO/HEVC
Продолжительность : 1 ч. 56 м.
Битрейт : 69,8 Мбит/сек
Ширина : 3840 пикселей
Высота : 2160 пикселей
Соотношение сторон : 16:9
Режим частоты кадров : Постоянный
Частота кадров : 23,976 (24000/1001) кадра/сек
Цветовое пространство : YUV
Субдискретизация насыщенности : 4:2:0 (Type 2)
Битовая глубина : 10 бит
Бит/(Пиксели*Кадры) : 0.351
Размер потока : 56,6 Гбайт (93%)
Заголовок : Robin.Hood.2018.UHD.BDRemux.2160p.x265.HDR.10bit.Master5
Default : Да
Forced : Нет
Цветовой диапазон : Limited
Основные цвета : BT.2020
Характеристики трансфера : PQ
Коэффициенты матрицы : BT.2020 non-constant
MasteringDisplay_ColorPrimaries : Display P3
MasteringDisplay_Luminance : min: 0.0050 cd/m2, max: 4000 cd/m2
MaxCLL : 2980 cd/m2
MaxFALL : 791 cd/m2

Аудио #1
Идентификатор : 2
Формат : AC-3
Формат/Информация : Audio Coding 3
Коммерческое название : Dolby Digital
Идентификатор кодека : A_AC3
Продолжительность : 1 ч. 56 м.
Вид битрейта : Постоянный
Битрейт : 192 Кбит/сек
Каналы : 2 канала
Channel layout : L R
Частота : 48,0 КГц
Частота кадров : 31,250 кадров/сек (1536 SPF)
Битовая глубина : 16 бит
Метод сжатия : С потерями
Задержка видео : 300 мс.
Размер потока : 159 Мбайт (0%)
Заголовок : HDRezka
Язык : Russian
ServiceKind/String : Complete Main
Default : Да
Forced : Да

Аудио #2
Идентификатор : 3
Формат : AC-3
Формат/Информация : Audio Coding 3
Коммерческое название : Dolby Digital
Идентификатор кодека : A_AC3
Продолжительность : 1 ч. 56 м.
Вид битрейта : Постоянный
Битрейт : 192 Кбит/сек
Каналы : 2 канала
Channel layout : L R
Частота : 48,0 КГц
Частота кадров : 31,250 кадров/сек (1536 SPF)
Битовая глубина : 16 бит
Метод сжатия : С потерями
Размер потока : 159 Мбайт (0%)
Язык : Ukrainian
ServiceKind/String : Complete Main
Default : Нет
Forced : Нет

Аудио #3
Идентификатор : 4
Формат : MLP FBA 16-ch
Формат/Информация : Meridian Lossless Packing FBA with 16-channel presentation
Коммерческое название : Dolby TrueHD with Dolby Atmos
Идентификатор кодека : A_TRUEHD
Продолжительность : 1 ч. 56 м.
Вид битрейта : Переменный
Битрейт : 3786 Кбит/сек
Максимальный битрейт : 6249 Кбит/сек
Каналы : 8 каналов
Channel layout : L R C LFE Ls Rs Lb Rb
Частота : 48,0 КГц
Частота кадров : 1200,000 кадров/сек (40 SPF)
Метод сжатия : Без потерь
Размер потока : 3,07 Гбайт (5%)
Заголовок : TrueHD Atmos 7.1
Язык : English
Default : Нет
Forced : Нет
Number of dynamic objects : 15
Bed channel count : 1 канал
Bed channel configuration : LFE

Аудио #4
Идентификатор : 5
Формат : AC-3
Формат/Информация : Audio Coding 3
Коммерческое название : Dolby Digital
Идентификатор кодека : A_AC3
Продолжительность : 1 ч. 56 м.
Вид битрейта : Постоянный
Битрейт : 640 Кбит/сек
Каналы : 6 каналов
Channel layout : L R C LFE Ls Rs
Частота : 48,0 КГц
Частота кадров : 31,250 кадров/сек (1536 SPF)
Битовая глубина : 16 бит
Метод сжатия : С потерями
Размер потока : 532 Мбайт (1%)
Заголовок : AC3 5.1
Язык : English
ServiceKind/String : Complete Main
Default : Нет
Forced : Нет

Текст #1
Идентификатор : 6
Формат : PGS
Режим смешивания : zlib
Идентификатор кодека : S_HDMV/PGS
Идентификатор кодека/Информация : Picture based subtitle format used on BDs/HD-DVDs
Продолжительность : 1 ч. 55 м.
Битрейт : 17,2 Кбит/сек
ElementCount : 2968
Размер потока : 14,2 Мбайт (0%)
Заголовок : English (SDH)
Язык : English
Default : Нет
Forced : Нет

Текст #2
Идентификатор : 7
Формат : PGS
Режим смешивания : zlib
Идентификатор кодека : S_HDMV/PGS
Идентификатор кодека/Информация : Picture based subtitle format used on BDs/HD-DVDs
Продолжительность : 1 ч. 46 м.
Битрейт : 16,7 Кбит/сек
ElementCount : 2452
Размер потока : 12,7 Мбайт (0%)
Заголовок : Spanish (Latin American)
Язык : Spanish
Default : Нет
Forced : Нет

Меню
00:00:00.000 : en:Chapter 01
00:05:40.340 : en:Chapter 02
00:12:22.992 : en:Chapter 03
00:18:31.986 : en:Chapter 04
00:24:03.150 : en:Chapter 05
00:30:43.341 : en:Chapter 06
00:37:25.452 : en:Chapter 07
00:43:39.033 : en:Chapter 08
00:50:00.122 : en:Chapter 09
00:57:47.297 : en:Chapter 10
01:05:26.131 : en:Chapter 11
01:10:55.001 : en:Chapter 12
01:18:44.136 : en:Chapter 13
01:24:20.013 : en:Chapter 14
01:31:18.306 : en:Chapter 15
01:44:48.866 : en:Chapter 16



Скачать Робин Гуд: Начало через торрент https://d.radikal.ru/d20/1902/e2/49efecbc108b.png Скачать, смотреть онлайн Робин Гуд: Начало бесплантно в хорошем качестве Описание: Ветеран Крестовых походов Робин из Локсли и его командир-мавр по возвращении в Англию видят, что родная страна погрязла в ... 10 10 6
Торрент: Зарегистрирован [2019-02-16 17:42] · скачан: 27 раз
Статус: T временная
Размер: 60.57 GB
Как cкачать? Как скачать Робин Гуд: Начало через торрент | UTorrent

% Раздел Тема Автор DL S | L
Фильмы 2018 [DVDrip, WEB-DLRip, HDrip] (DUB, MVO) [ 1.46 GB ] Робин Гуд: Начало / Robin Hood | | DLRip killermax2013 Скачать
1 | 0
Фильмы (HD 720p, 1080p) (48-60 fps) [ 26.48 GB ] Робин Гуд: Начало / Robin Hood | iTunes | 1080p, 60 fps sheker187 Скачать
1 | 1
T Фильмы с украинским озвучиванием [ 3.58 GB ] Робин Гуд: Начало / Robin Hood | DUB | 1080p killermax2013 Скачать
1 | 0
Ultra HD (UHD: 2K, 4K, 8K) [ 85.87 GB ] Робин Гуд: Начало / Robin Hood | iTunes | 2160p sheker187 Скачать
1 | 0
Фильмы 2018 [DVDrip, WEB-DLRip, HDrip] (DUB, MVO) [ 2.13 GB ] Робин Гуд: Начало / Robin Hood | Лицензия | BDRip Twi7ter Скачать
1 | 0
Фильмы [HD 720p, 1080p] (Хороший звук DUB, MVO) [ 9.5 GB ] Робин Гуд: Начало / Robin Hood | iTunes | 1080p bober100 Скачать
1 | 0
Фильмы 2018 [DVDrip, WEB-DLRip, HDrip] (DUB, MVO) [ 1.41 GB ] Робин Гуд: Начало / Robin Hood | iTunes | BDRip bober100 Скачать
1 | 0

28-11-2019 20:33  


Отключить вcю реклaмy на сайте, в т.ч. и в плеере онлайн просмотра!

    Дорогой пользователь! Огромная просьба, поблагодарите релизера, оцените раздачу и оставьте свои комментарий, если Вы скачали Робин Гуд: Начало через торрент бесплатно!!
    Комментировать посты могут только пользователи прошедшие не сложную регистрацию
    Показать сообщения:    


    Робин Гуд: Начало через торрент
    Скачать бесплатно Робин Гуд: Начало
    Робин Гуд: Начало скачать торрент
    Робин Гуд: Начало смотреть онлайн
    Cкачать фильм Робин Гуд: Начало бесплатно
    Робин Гуд: Начало скачать торрент в хорошем качестве
    Робин Гуд: Начало смотреть онлайн бесплатно в хорошем качестве
    Вы не можете начинать темы
    Вы не можете отвечать на сообщения
    Вы не можете редактировать свои сообщения
    Вы не можете удалять свои сообщения
    Вы не можете голосовать в опросах
    Вы не можете прикреплять файлы к сообщениям
    Вы можете скачивать файлы
    Робин Гуд: Начало / Robin Hood [2018, боевик, триллер, приключения, UHD BDRemux 2160p] MVO [HDRezka] смотреть онлайн, скачать торрент picoco.icu