Достать ножи: Стеклянная луковица

MVO

Добыча

Дубляж

Уэнсдэй

1 сезон

Тор

Дубляж

13 клиническая

1 сезон

Жестокая ночь

MVO

Одни из нас

1 сезон

Deluxe

pack

Рекомендуем

30

Пиратка

ВАЖНО

ВАЖНО

Ghostwire

Пиратка

jed

RePack

nioh2

RePack

RDR2

RePack

NEED FOR SPEED™ PAYBACK

RePack

скачать торрент

Кинопоиск HD

Острые козырьки 6 сезон

6 сезон

FAR CRY 6

RePack

скачать торрент

Лицензия

скачать торрент

MVO

1

1 сезон

скачать торрент

1 сезон

скачать торрент

Лицензия

  

Хранители / Watchmen (Зак Снайдер) [2009, фантастика, боевик, драма, UHD BDRip 2160p] Дубляж (rus, ukr) + MVO + AVO [Максимальная версия]

Хранители через торрент piratbit.org

Размер: 36.35 GB | Добавлен: 3 года 11 мес. назад | Торрент скачан:125 раз
Смотреть онлайн | Скачать | Поддержите нас   

17-02-2019 04:39 Хранители Скачать торрент  

Хранители / Watchmen

Год выпуска: 2009
Страна: США
Жанр: фантастика, боевик, драма, детектив
Продолжительность: 03:35:25
Перевод: Дублированный, профессиональный многоголосый, авторский
Субтитры: Субтитры: Русские (full x2, forced), украинские (full, forced), английские (full, SDH)
Режиссер: Зак Снайдер
В ролях:

Патрик Уилсон (Dan Dreiberg / Nite Owl), Мэттью Гуд (Adrian Veidt / Ozymandias), Малин Акерман (Laurie Jupiter / Silk Spectre II), Джеки Эрл Хейли (Rorschach), Билли Крудап (Dr. Manhattan / Jon Osterman), Джеффри Дин Морган (Edward Blake / Comedian), Карла Гуджино (Sally Jupiter / Silk Spectre), Мэтт Фрюэр (Moloch), Стивен МакХэтти (Hollis Mason), Лаура Меннелл (Janey Slater), Роб ЛаБелль (Wally Weaver), Гэри Хьюстон (John McLaughlin)
Описание:
Действие картины разворачивается в параллельной реальности, в Америке 1985 года. В этом мире супергерои стали частью повседневной жизни общества, а Часы Судного Дня, застыв в пяти минутах от полуночи, отсчитывают время до столкновения ведущих мировых держав. После убийства одного из своих прежних коллег Роршах - супергерой, никогда не снимающий маски, - полон решимости свершить суд Линча.
Рейтинг:

MPAA: R - Лицам до 17 лет обязательно присутствие взрослого
Качество: UHD BDRip 2160p
Формат: MKV
Видео: HEVC HDR, 21200 Кбит/с, 3840x1596, 23.976 кадр/с
Аудио 1: AC3, 6 ch, 640 kbps - Русский, Дубляж (со вставками MVO)
Аудио 2: AC3, 6 ch, 640 kbps - Русский, Киномания
Аудио 3: AC3, 6 ch, 640 kbps - Русский, Ю. Сербин
Аудио 4: AC3, 6 ch, 448 kbps - Украинский (со вставками VO)
Аудио 5: AC3, 6 ch, 640 kbps - Английский
Навигация по главам: есть
Сатурн, 2010 год
Победитель (3):
Лучший фэнтези-фильм
Лучшие костюмы
Лучшее специальное DVD-издание — «For the The Ultimate Cut»
Номинации (5):
Лучший режиссер (Зак Снайдер)
Лучшая актриса второго плана (Малин Акерман)
Лучший сценарий
Лучшие спецэффекты
Лучшие декорации
General
Unique ID : 108729234376126161898998576981915008777 (0x51CC7D241021C0A1A35CDCDE1D54FF09)
Complete name : S:\Watchmen_2009_UC_UHD-BDRip_HDR_BT2020_x265_2160p.mkv
Format : Matroska
Format version : Version 4
File size : 36.4 GiB
Duration : 3 h 35 min
Overall bit rate : 24.2 Mb/s
Movie name : Watchmen (2009) [Ultimate Cut] UHD-BDRip HDR BT2020 x265 2160p -BLUEBIRD
Encoded date : UTC 2019-02-10 12:53:10
Writing application : mkvmerge v31.0.0 ('Dolores In A Shoestand') 64-bit
Writing library : libebml v1.3.6 + libmatroska v1.4.9

Video
ID : 1
Format : HEVC
Format/Info : High Efficiency Video Coding
Commercial name : HDR10
Format profile : Main 10@L5.1@High
Codec ID : V_MPEGH/ISO/HEVC
Duration : 3 h 35 min
Bit rate : 21.2 Mb/s
Width : 3 840 pixels
Height : 1 596 pixels
Display aspect ratio : 2.40:1
Frame rate mode : Constant
Frame rate : 23.976 (24000/1001) FPS
Color space : YUV
Chroma subsampling : 4:2:0 (Type 2)
Bit depth : 10 bits
Bits/(Pixel*Frame) : 0.144
Stream size : 31.8 GiB (88%)
Title : Watchmen_2009_UC_UHD-BDRip_HDR_BT2020_x265_2160p -BLUEBIRD
Writing library : x265 2.9+35-bad4e598cac7:[Windows][GCC 6.3.0][64 bit] 10bit
Encoding settings : cpuid=1111039 / frame-threads=4 / numa-pools=32 / wpp / no-pmode / pme / no-psnr / no-ssim / log-level=2 / input-csp=1 / input-res=3840x1596 / interlace=0 / total-frames=309835 / level-idc=51 / high-tier=1 / uhd-bd=0 / ref=4 / no-allow-non-conformance / repeat-headers / annexb / no-aud / no-hrd / info / hash=0 / no-temporal-layers / no-open-gop / min-keyint=24 / keyint=250 / gop-lookahead=0 / bframes=15 / b-adapt=2 / b-pyramid / bframe-bias=0 / rc-lookahead=60 / lookahead-slices=0 / scenecut=40 / radl=0 / no-splice / no-intra-refresh / ctu=64 / min-cu-size=8 / rect / amp / max-tu-size=32 / tu-inter-depth=1 / tu-intra-depth=1 / limit-tu=0 / rdoq-level=1 / dynamic-rd=0.00 / no-ssim-rd / signhide / no-tskip / nr-intra=0 / nr-inter=0 / constrained-intra / strong-intra-smoothing / max-merge=5 / limit-refs=3 / limit-modes / me=3 / subme=7 / merange=92 / temporal-mvp / weightp / weightb / no-analyze-src-pics / deblock=0:0 / no-sao / no-sao-non-deblock / rd=5 / no-early-skip / no-rskip / no-fast-intra / no-tskip-fast / no-cu-lossless / b-intra / no-splitrd-skip / rdpenalty=0 / psy-rd=1.77 / psy-rdoq=1.17 / rd-refine / no-lossless / cbqpoffs=0 / crqpoffs=0 / rc=crf / crf=17.0 / qcomp=0.62 / qpstep=1 / stats-write=0 / stats-read=0 / vbv-maxrate=160000 / vbv-bufsize=160000 / vbv-init=0.9 / crf-max=0.0 / crf-min=0.0 / ipratio=1.35 / pbratio=1.25 / aq-mode=3 / aq-strength=0.95 / cutree / zone-count=1 / zones: / start-frame=294385 / end-frame=309835 / qp=32 / no-strict-cbr / qg-size=32 / no-rc-grain / qpmax=69 / qpmin=0 / no-const-vbv / sar=1 / overscan=0 / videoformat=5 / range=0 / colorprim=9 / transfer=16 / colormatrix=9 / chromaloc=1 / chromaloc-top=2 / chromaloc-bottom=2 / display-window=0 / master-display=G(13250,34500)B(7500,3000)R(34000,16000)WP(15635,16450)L(40000000,50) / max-cll=500,200 / min-luma=0 / max-luma=1023 / log2-max-poc-lsb=8 / vui-timing-info / vui-hrd-info / slices=1 / no-opt-qp-pps / no-opt-ref-list-length-pps / no-multi-pass-opt-rps / scenecut-bias=0.05 / no-opt-cu-delta-qp / no-aq-motion / hdr / hdr-opt / no-dhdr10-opt / no-idr-recovery-sei / analysis-reuse-level=5 / scale-factor=0 / refine-intra=0 / refine-inter=0 / refine-mv=0 / refine-ctu-distortion=0 / no-limit-sao / ctu-info=0 / no-lowpass-dct / refine-analysis-type=0 / copy-pic=1 / max-ausize-factor=1.0 / no-dynamic-refine / no-single-sei / no-hevc-aq / qp-adaptation-range=1.00
Default : Yes
Forced : No
Color range : Limited
Color primaries : BT.2020
Transfer characteristics : PQ
Matrix coefficients : BT.2020 non-constant
Mastering display color pri : Display P3
Mastering display luminance : min: 0.0050 cd/m2, max: 4000 cd/m2
Maximum Content Light Level : 500 cd/m2
Maximum Frame-Average Light : 200 cd/m2

Audio #1
ID : 2
Format : AC-3
Format/Info : Audio Coding 3
Commercial name : Dolby Digital
Codec ID : A_AC3
Duration : 3 h 35 min
Bit rate mode : Constant
Bit rate : 640 kb/s
Channel(s) : 6 channels
Channel layout : L R C LFE Ls Rs
Sampling rate : 48.0 kHz
Frame rate : 31.250 FPS (1536 SPF)
Bit depth : 16 bits
Compression mode : Lossy
Stream size : 986 MiB (3%)
Title : Дубляж + MVO
Language : Russian
Service kind : Complete Main
Default : Yes
Forced : No

Audio #2
ID : 3
Format : AC-3
Format/Info : Audio Coding 3
Commercial name : Dolby Digital
Codec ID : A_AC3
Duration : 3 h 35 min
Bit rate mode : Constant
Bit rate : 640 kb/s
Channel(s) : 6 channels
Channel layout : L R C LFE Ls Rs
Sampling rate : 48.0 kHz
Frame rate : 31.250 FPS (1536 SPF)
Bit depth : 16 bits
Compression mode : Lossy
Stream size : 986 MiB (3%)
Title : MVO [Kinomaniya]
Language : Russian
Service kind : Complete Main
Default : No
Forced : No

Audio #3
ID : 4
Format : AC-3
Format/Info : Audio Coding 3
Commercial name : Dolby Digital
Codec ID : A_AC3
Duration : 3 h 35 min
Bit rate mode : Constant
Bit rate : 640 kb/s
Channel(s) : 6 channels
Channel layout : L R C LFE Ls Rs
Sampling rate : 48.0 kHz
Frame rate : 31.250 FPS (1536 SPF)
Bit depth : 16 bits
Compression mode : Lossy
Stream size : 986 MiB (3%)
Title : VO Serbin
Language : Russian
Service kind : Complete Main
Default : No
Forced : No

Audio #4
ID : 5
Format : AC-3
Format/Info : Audio Coding 3
Commercial name : Dolby Digital
Codec ID : A_AC3
Duration : 3 h 35 min
Bit rate mode : Constant
Bit rate : 448 kb/s
Channel(s) : 6 channels
Channel layout : L R C LFE Ls Rs
Sampling rate : 48.0 kHz
Frame rate : 31.250 FPS (1536 SPF)
Bit depth : 16 bits
Compression mode : Lossy
Stream size : 690 MiB (2%)
Title : MVO [BD+VO]
Language : Ukrainian
Service kind : Complete Main
Default : No
Forced : No

Audio #5
ID : 6
Format : AC-3
Format/Info : Audio Coding 3
Commercial name : Dolby Digital
Codec ID : A_AC3
Duration : 3 h 35 min
Bit rate mode : Constant
Bit rate : 640 kb/s
Channel(s) : 6 channels
Channel layout : L R C LFE Ls Rs
Sampling rate : 48.0 kHz
Frame rate : 31.250 FPS (1536 SPF)
Bit depth : 16 bits
Compression mode : Lossy
Stream size : 986 MiB (3%)
Title : AC3 EX [core]
Language : English
Service kind : Complete Main
Default : No
Forced : No

Text #1
ID : 7
Format : UTF-8
Codec ID : S_TEXT/UTF8
Codec ID/Info : UTF-8 Plain Text
Duration : 2 h 42 min
Bit rate : 2 b/s
Count of elements : 60
Stream size : 3.28 KiB (0%)
Title : forced
Language : Russian
Default : Yes
Forced : Yes

Text #2
ID : 8
Format : UTF-8
Codec ID : S_TEXT/UTF8
Codec ID/Info : UTF-8 Plain Text
Duration : 3 h 24 min
Bit rate : 86 b/s
Count of elements : 2212
Stream size : 129 KiB (0%)
Title : full [Дубляж]
Language : Russian
Default : No
Forced : No

Text #3
ID : 9
Format : UTF-8
Codec ID : S_TEXT/UTF8
Codec ID/Info : UTF-8 Plain Text
Duration : 3 h 24 min
Bit rate : 86 b/s
Count of elements : 2225
Stream size : 129 KiB (0%)
Title : full [Kinomaniya]
Language : Russian
Default : No
Forced : No

Text #4
ID : 10
Format : UTF-8
Codec ID : S_TEXT/UTF8
Codec ID/Info : UTF-8 Plain Text
Duration : 3 h 29 min
Bit rate : 24 b/s
Count of elements : 604
Stream size : 37.4 KiB (0%)
Title : forced
Language : Ukrainian
Default : No
Forced : No

Text #5
ID : 11
Format : UTF-8
Codec ID : S_TEXT/UTF8
Codec ID/Info : UTF-8 Plain Text
Duration : 3 h 34 min
Bit rate : 85 b/s
Count of elements : 2268
Stream size : 135 KiB (0%)
Title : full
Language : Ukrainian
Default : No
Forced : No

Text #6
ID : 12
Format : UTF-8
Codec ID : S_TEXT/UTF8
Codec ID/Info : UTF-8 Plain Text
Duration : 3 h 24 min
Bit rate : 52 b/s
Count of elements : 2212
Stream size : 78.2 KiB (0%)
Title : full
Language : English
Default : No
Forced : No

Text #7
ID : 13
Format : UTF-8
Codec ID : S_TEXT/UTF8
Codec ID/Info : UTF-8 Plain Text
Duration : 3 h 35 min
Bit rate : 51 b/s
Count of elements : 2337
Stream size : 81.7 KiB (0%)
Title : SDH
Language : English
Default : No
Forced : No

Menu
00:00:00.000 : en:Chapter 1
00:05:39.756 : en:Chapter 2
00:11:14.507 : en:Chapter 3
00:16:03.295 : en:Chapter 4
00:19:03.517 : en:Chapter 5
00:23:46.716 : en:Chapter 6
00:26:51.359 : en:Chapter 7
00:29:42.071 : en:Chapter 8
00:34:40.536 : en:Chapter 9
00:39:29.450 : en:Chapter 10
00:44:03.974 : en:Chapter 11
00:48:01.211 : en:Chapter 12
00:50:29.901 : en:Chapter 13
00:54:43.154 : en:Chapter 14
00:59:12.799 : en:Chapter 15
01:01:17.548 : en:Chapter 16
01:03:34.769 : en:Chapter 17
01:06:13.219 : en:Chapter 18
01:09:27.538 : en:Chapter 19
01:16:08.689 : en:Chapter 20
01:20:51.096 : en:Chapter 21
01:23:10.944 : en:Chapter 22
01:26:42.572 : en:Chapter 23
01:28:43.943 : en:Chapter 24
01:31:44.207 : en:Chapter 25
01:36:48.761 : en:Chapter 26
01:41:14.651 : en:Chapter 27
01:47:06.169 : en:Chapter 28
01:50:38.506 : en:Chapter 29
01:54:02.836 : en:Chapter 30
01:59:49.891 : en:Chapter 31
02:04:14.405 : en:Chapter 32
02:09:05.028 : en:Chapter 33
02:13:42.014 : en:Chapter 34
02:20:32.966 : en:Chapter 35
02:23:37.108 : en:Chapter 36
02:27:53.573 : en:Chapter 37
02:32:48.576 : en:Chapter 38
02:37:01.787 : en:Chapter 39
02:39:43.949 : en:Chapter 40
02:44:38.660 : en:Chapter 41
02:49:30.451 : en:Chapter 42
02:56:14.355 : en:Chapter 43
02:58:57.101 : en:Chapter 44
03:04:11.915 : en:Chapter 45
03:06:14.037 : en:Chapter 46
03:10:25.872 : en:Chapter 47
03:14:05.383 : en:Chapter 48
03:17:29.087 : en:Chapter 49
03:19:59.612 : en:Chapter 50
03:24:38.307 : en:Chapter 51



Скачать Хранители через торрент https://a.radikal.ru/a19/1902/72/4c24ff4e1344.png Скачать, смотреть онлайн Хранители бесплантно в хорошем качестве Описание: Действие картины разворачивается в параллельной реальности, в Америке 1985 года. В этом мире супергерои стали частью повседневной ... 10 10 4
Торрент: Зарегистрирован [2019-02-17 04:39] · скачан: 125 раз
Статус: √ проверено
Размер: 36.35 GB
Как cкачать? Как скачать Хранители через торрент | UTorrent

% Раздел Тема Автор DL S | L
Ultra HD (UHD: 2K, 4K, 8K) [ 95.73 GB ] Хранители / Watchmen | DUB + MVO + 2xAVO | 2160p sheker187 Скачать
1 | 0
Ultra HD (UHD: 2K, 4K, 8K) [ 103.05 GB ] Хранители / Watchmen | DUB + MVO + 2xAVO | 2160p sheker187 Скачать
1 | 0

28-11-2019 20:33  


Отключить вcю реклaмy на сайте, в т.ч. и в плеере онлайн просмотра!

    Дорогой пользователь! Огромная просьба, поблагодарите релизера, оцените раздачу и оставьте свои комментарий, если Вы скачали Хранители через торрент бесплатно!!
    Комментировать посты могут только пользователи прошедшие не сложную регистрацию
    Показать сообщения:    


    Хранители через торрент
    Скачать бесплатно Хранители
    Хранители скачать торрент
    Хранители смотреть онлайн
    Cкачать фильм Хранители бесплатно
    Хранители скачать торрент в хорошем качестве
    Хранители смотреть онлайн бесплатно в хорошем качестве
    Вы не можете начинать темы
    Вы не можете отвечать на сообщения
    Вы не можете редактировать свои сообщения
    Вы не можете удалять свои сообщения
    Вы не можете голосовать в опросах
    Вы не можете прикреплять файлы к сообщениям
    Вы можете скачивать файлы
    Хранители / Watchmen [2009, фантастика, боевик, драма, UHD BDRip 2160p] Дубляж + MVO + AVO [Максимальная версия] смотреть онлайн, скачать торрент picoco.icu