Достать ножи: Стеклянная луковица

MVO

Добыча

Дубляж

Уэнсдэй

1 сезон

Тор

Дубляж

13 клиническая

1 сезон

Жестокая ночь

MVO

Одни из нас

1 сезон

Deluxe

pack

Рекомендуем

30

Пиратка

ВАЖНО

ВАЖНО

Ghostwire

Пиратка

jed

RePack

nioh2

RePack

RDR2

RePack

NEED FOR SPEED™ PAYBACK

RePack

скачать торрент

Кинопоиск HD

Острые козырьки 6 сезон

6 сезон

FAR CRY 6

RePack

скачать торрент

Лицензия

скачать торрент

MVO

1

1 сезон

скачать торрент

1 сезон

скачать торрент

Лицензия

  

Хэллоуин / Halloween (Дэвид Гордон Грин) [2018 г., Ужасы, триллер, UHD BDRip 2160p] [SDR] Дубляж (rus, ukr) [Лицензия]

Хэллоуин через торрент piratbit.org

Размер: 24.87 GB | Добавлен: 3 года 11 мес. назад | Торрент скачан:13 раз
Смотреть онлайн | Скачать | Поддержите нас   

18-02-2019 15:42 Хэллоуин Скачать торрент  

Хэллоуин / Halloween«Face Your Fate»

Год выпуска: 2018
Страна: США
Жанр: Ужасы, триллер
Продолжительность: 01:45:42
Перевод: Дублированный | Лицензия
Субтитры: Русские (Forced, full), английские
Режиссер: Дэвид Гордон Грин
В ролях:

Джейми Ли Кёртис (Laurie Strode), Джуди Грир (Karen), Энди Мэтичак (Allyson), Джеймс Джуд Кортни (The Shape), Ник Касл (The Shape), Халук Бильгинер (Dr. Sartain), Уилл Пэттон (Officer Hawkins), Риан Риис (Dana Haines), Джефферсон Холл (Aaron Korey), Тоби Хасс (Ray), Вирджиния Гарднер (Vicky), Дилан Арнольд (Cameron Elam)
Описание:
Фильм является прямым продолжением оригинальной картины Джона Карпентера 1978 года и проигнорирует события всех существующих сиквелов культовой хоррор-франшизы. Знаменитый серийный убийца в маске, орудующий в канун Дня всех святых, снова вернулся, как и всегда возвращается неуправляемое зло. Уже немолодую Лори Строуд (Джейми Ли Кёртис) ждёт финальное противостояние с Майклом Майерсом (Ник Касл), который неустанно преследовал женщину с тех пор, как четыре десятилетия назад ей удалось избежать смерти от рук безжалостного маньяка в ночь на Хэллоуин.
Рейтинг:

MPAA: R - Лицам до 17 лет обязательно присутствие взрослого
Качество: UHD BDRip 2160p | SDR
Формат: MKV
Видео: HEVC HDR, 16500 Кбит/с, 3840x1606, 23.976 кадр/с, 10 бит
Аудио: DTS, 6 ch, 768 Kbps | Русский (Дубляж)
Аудио: AC3, 6 ch, 448 Kbps | Русский (Дубляж)
Аудио: AC3, 2 ch, 192 Kbps | Украинский (Дубляж, iTunes)_ спасибо Hurtom
Аудио: AC3, 6 ch, 640 Kbps | Оригинал | Английский |
Навигация по главам: есть

Общее
Уникальный идентификатор : 176879638786455984645337478558261871563 (0x8511C77F7DF2EF1E91150FA55D7683CB)
Полное имя : D:\Передел_2\Новая папка (7)\Halloween.2018.2160p.BDRip.UHD.x265.10bit.SDR.Master5.mkv
Формат : Matroska
Версия формата : Version 4
Размер файла : 24,9 Гбайт
Продолжительность : 1 ч. 45 м.
Общий поток : 33,7 Мбит/сек
Название фильма : Halloween.2018.2160p.BDRip.UHD.x265.10bit.SDR.Master5
Дата кодирования : UTC 2019-02-18 14:13:19
Программа кодирования : mkvmerge v7.9.0 ('Birds') 64bit
Библиотека кодирования : libebml v1.3.1 + libmatroska v1.4.2
Обложка : Yes
Attachments : small_cover.jpg / small_cover_land.jpg / cover.jpg / cover_land.jpg / cover

Видео
Идентификатор : 1
Формат : HEVC
Формат/Информация : High Efficiency Video Coding
Профиль формата : Main 10@L5.1@High
Идентификатор кодека : V_MPEGH/ISO/HEVC
Продолжительность : 1 ч. 45 м.
Битрейт : 31,6 Мбит/сек
Ширина : 3840 пикселей
Высота : 1606 пикселей
Соотношение сторон : 2,40:1
Режим частоты кадров : Постоянный
Частота кадров : 23,976 (24000/1001) кадра/сек
Цветовое пространство : YUV
Субдискретизация насыщенности : 4:2:0
Битовая глубина : 10 бит
Бит/(Пиксели*Кадры) : 0.214
Размер потока : 23,4 Гбайт (94%)
Заголовок : Halloween.2018.2160p.BDRip.UHD.x265.10bit.SDR.Master5
Библиотека кодирования : x265 2.9+8-27d8424c799d:[Windows][GCC 8.2.0][64 bit] 10bit
Настройки программы : cpuid=1111039 / frame-threads=16 / numa-pools=20 / wpp / no-pmode / no-pme / no-psnr / no-ssim / log-level=2 / input-csp=1 / input-res=3840x1606 / interlace=0 / total-frames=152184 / level-idc=51 / high-tier=1 / uhd-bd=0 / ref=3 / no-allow-non-conformance / repeat-headers / annexb / aud / hrd / info / hash=0 / no-temporal-layers / no-open-gop / min-keyint=1 / keyint=24 / gop-lookahead=0 / bframes=4 / b-adapt=2 / b-pyramid / bframe-bias=0 / rc-lookahead=25 / lookahead-slices=4 / scenecut=40 / radl=0 / no-intra-refresh / ctu=64 / min-cu-size=8 / no-rect / no-amp / max-tu-size=32 / tu-inter-depth=1 / tu-intra-depth=1 / limit-tu=0 / rdoq-level=0 / dynamic-rd=0.00 / no-ssim-rd / signhide / no-tskip / nr-intra=0 / nr-inter=0 / no-constrained-intra / strong-intra-smoothing / max-merge=2 / limit-refs=3 / no-limit-modes / me=1 / subme=2 / merange=57 / temporal-mvp / weightp / no-weightb / no-analyze-src-pics / deblock=0:0 / no-sao / no-sao-non-deblock / rd=3 / no-early-skip / rskip / no-fast-intra / no-tskip-fast / no-cu-lossless / no-b-intra / no-splitrd-skip / rdpenalty=0 / psy-rd=2.00 / psy-rdoq=0.00 / no-rd-refine / no-lossless / cbqpoffs=0 / crqpoffs=0 / rc=crf / crf=16.0 / qcomp=0.60 / qpstep=4 / stats-write=0 / stats-read=0 / vbv-maxrate=160000 / vbv-bufsize=160000 / vbv-init=0.9 / crf-max=0.0 / crf-min=0.0 / ipratio=1.40 / pbratio=1.30 / aq-mode=1 / aq-strength=1.00 / cutree / zone-count=0 / no-strict-cbr / qg-size=32 / no-rc-grain / qpmax=69 / qpmin=0 / no-const-vbv / sar=1 / overscan=0 / videoformat=5 / range=0 / colorprim=2 / transfer=2 / colormatrix=2 / chromaloc=0 / display-window=0 / max-cll=0,0 / min-luma=0 / max-luma=1023 / log2-max-poc-lsb=8 / vui-timing-info / vui-hrd-info / slices=1 / opt-qp-pps / opt-ref-list-length-pps / no-multi-pass-opt-rps / scenecut-bias=0.05 / no-opt-cu-delta-qp / no-aq-motion / no-hdr / no-hdr-opt / no-dhdr10-opt / no-idr-recovery-sei / analysis-reuse-level=5 / scale-factor=0 / refine-intra=0 / refine-inter=0 / refine-mv=0 / no-limit-sao / ctu-info=0 / no-lowpass-dct / refine-mv-type=0 / copy-pic=1 / max-ausize-factor=1.0 / no-dynamic-refine / no-single-sei
Default : Да
Forced : Нет

Аудио #1
Идентификатор : 2
Формат : DTS
Формат/Информация : Digital Theater Systems
Идентификатор кодека : A_DTS
Продолжительность : 1 ч. 45 м.
Вид битрейта : Постоянный
Битрейт : 768 Кбит/сек
Каналы : 6 каналов
Channel layout : C L R Ls Rs LFE
Частота : 48,0 КГц
Частота кадров : 93,750 кадра/сек (512 SPF)
Битовая глубина : 24 бит
Метод сжатия : С потерями
Размер потока : 581 Мбайт (2%)
Заголовок : Дубляж License
Язык : Russian
Default : Да
Forced : Да

Аудио #2
Идентификатор : 3
Формат : AC-3
Формат/Информация : Audio Coding 3
Коммерческое название : Dolby Digital
Идентификатор кодека : A_AC3
Продолжительность : 1 ч. 45 м.
Вид битрейта : Постоянный
Битрейт : 448 Кбит/сек
Каналы : 6 каналов
Channel layout : L R C LFE Ls Rs
Частота : 48,0 КГц
Частота кадров : 31,250 кадров/сек (1536 SPF)
Битовая глубина : 16 бит
Метод сжатия : С потерями
Размер потока : 339 Мбайт (1%)
Заголовок : Дубляж License
Язык : Russian
ServiceKind/String : Complete Main
Default : Нет
Forced : Нет

Аудио #3
Идентификатор : 4
Формат : AC-3
Формат/Информация : Audio Coding 3
Коммерческое название : Dolby Digital
Идентификатор кодека : A_AC3
Продолжительность : 1 ч. 45 м.
Вид битрейта : Постоянный
Битрейт : 192 Кбит/сек
Каналы : 2 канала
Channel layout : L R
Частота : 48,0 КГц
Частота кадров : 31,250 кадров/сек (1536 SPF)
Битовая глубина : 16 бит
Метод сжатия : С потерями
Размер потока : 145 Мбайт (1%)
Заголовок : Дубляж, iTunes
Язык : Ukrainian
ServiceKind/String : Complete Main
Default : Нет
Forced : Нет

Аудио #4
Идентификатор : 5
Формат : AC-3
Формат/Информация : Audio Coding 3
Коммерческое название : Dolby Digital
Идентификатор кодека : A_AC3
Продолжительность : 1 ч. 45 м.
Вид битрейта : Постоянный
Битрейт : 640 Кбит/сек
Каналы : 6 каналов
Channel layout : L R C LFE Ls Rs
Частота : 48,0 КГц
Частота кадров : 31,250 кадров/сек (1536 SPF)
Битовая глубина : 16 бит
Метод сжатия : С потерями
Размер потока : 484 Мбайт (2%)
Язык : English
ServiceKind/String : Complete Main
Default : Нет
Forced : Нет

Текст #1
Идентификатор : 6
Формат : UTF-8
Идентификатор кодека : S_TEXT/UTF8
Идентификатор кодека/Информация : UTF-8 Plain Text
Продолжительность : 1 ч. 23 м.
Битрейт : 0 бит/сек
ElementCount : 7
Размер потока : 224 байт (0%)
Заголовок : Forced
Язык : Russian
Default : Да
Forced : Да

Текст #2
Идентификатор : 7
Формат : UTF-8
Идентификатор кодека : S_TEXT/UTF8
Идентификатор кодека/Информация : UTF-8 Plain Text
Продолжительность : 1 ч. 44 м.
Битрейт : 55 бит/сек
ElementCount : 1131
Размер потока : 42,5 Кбайт (0%)
Заголовок : Full
Язык : Russian
Default : Нет
Forced : Нет

Текст #3
Идентификатор : 8
Формат : UTF-8
Идентификатор кодека : S_TEXT/UTF8
Идентификатор кодека/Информация : UTF-8 Plain Text
Продолжительность : 1 ч. 38 м.
Битрейт : 54 бит/сек
ElementCount : 1181
Размер потока : 39,4 Кбайт (0%)
Заголовок : Full
Язык : English
Default : Нет
Forced : Нет

Меню
00:00:00.000 : en:00:00:00.000
00:08:42.522 : en:00:08:42.522
00:14:26.949 : en:00:14:26.949
00:20:46.996 : en:00:20:46.996
00:23:17.855 : en:00:23:17.855
00:27:45.080 : en:00:27:45.080
00:32:55.724 : en:00:32:55.724
00:40:51.366 : en:00:40:51.366
00:44:41.053 : en:00:44:41.053
00:48:26.403 : en:00:48:26.403
00:53:26.453 : en:00:53:26.453
00:59:18.597 : en:00:59:18.597
01:03:22.340 : en:01:03:22.340
01:07:29.629 : en:01:07:29.629
01:14:46.524 : en:01:14:46.524
01:18:10.561 : en:01:18:10.561
01:22:04.837 : en:01:22:04.837
01:30:09.904 : en:01:30:09.904
01:35:33.394 : en:01:35:33.394
01:40:41.494 : en:01:40:41.494



Скачать Хэллоуин через торрент https://c.radikal.ru/c43/1902/5d/5ff0225b963b.png Скачать, смотреть онлайн Хэллоуин бесплантно в хорошем качестве Описание: Фильм является прямым продолжением оригинальной картины Джона Карпентера 1978 года и проигнорирует события всех существующих ... 10 10 1
Торрент: Зарегистрирован [2019-02-18 15:42] · скачан: 13 раз
Статус: √ проверено
Размер: 24.87 GB
Как cкачать? Как скачать Хэллоуин через торрент | UTorrent

% Раздел Тема Автор DL S | L
Фильмы (WEB-DL 720p, 1080p) [ 5.82 GB ] Хэллоуин заканчивается / Halloween Ends | DUB | 1080p bober100 Скачать
3 | 0
Фильмы 2022-2023 [DVDrip, WEB-DLRip, HDrip] (DUB, MVO) [ 1.56 GB ] Хэллоуин заканчивается / Halloween Ends | TVShows | DLRip-AVC bober100 Скачать
2 | 0
Фильмы 2022-2023 [DVDrip, WEB-DLRip, HDrip] (DUB, MVO) [ 1.46 GB ] Хэллоуин заканчивается / Halloween Ends | TVShows | DLRip bober100 Скачать
2 | 0
Фильмы 2021 [DVDrip, WEB-DLRip, HDrip] (DUB, MVO) [ 747 MB ] Хэллоуин убивает / Halloween Kills | Пифагор | BDRip bober100 Скачать
1 | 0
Фильмы [HD 720p, 1080p] (Хороший звук DUB, MVO) [ 4.8 GB ] Хэллоуин убивает / Halloween Kills | Пифагор | 720p bober100 Скачать
1 | 0
Фильмы (Blu-ray, BD-Remux, HDDVD) [ 22.28 GB ] Хэллоуин убивает / Halloween Kills | Пифагор | BD Remux 1080p bober100 Скачать
1 | 0
Ultra HD (UHD: 2K, 4K, 8K) [ 49.75 GB ] Хэллоуин убивает / Halloween Kills | Пифагор | 2160p, (Dolby Vision Profile 8 bober100 Скачать
1 | 0

28-11-2019 20:33  


Отключить вcю реклaмy на сайте, в т.ч. и в плеере онлайн просмотра!

    Дорогой пользователь! Огромная просьба, поблагодарите релизера, оцените раздачу и оставьте свои комментарий, если Вы скачали Хэллоуин через торрент бесплатно!!
    Комментировать посты могут только пользователи прошедшие не сложную регистрацию
    Показать сообщения:    


    Хэллоуин через торрент
    Скачать бесплатно Хэллоуин
    Хэллоуин скачать торрент
    Хэллоуин смотреть онлайн
    Cкачать фильм Хэллоуин бесплатно
    Хэллоуин скачать торрент в хорошем качестве
    Хэллоуин смотреть онлайн бесплатно в хорошем качестве
    Вы не можете начинать темы
    Вы не можете отвечать на сообщения
    Вы не можете редактировать свои сообщения
    Вы не можете удалять свои сообщения
    Вы не можете голосовать в опросах
    Вы не можете прикреплять файлы к сообщениям
    Вы можете скачивать файлы
    Хэллоуин / Halloween [2018 г., Ужасы, триллер, UHD BDRip 2160p] [SDR] Дубляж [Лицензия] смотреть онлайн, скачать торрент picoco.icu