Достать ножи: Стеклянная луковица

MVO

Добыча

Дубляж

Уэнсдэй

1 сезон

Тор

Дубляж

13 клиническая

1 сезон

Жестокая ночь

MVO

Одни из нас

1 сезон

Deluxe

pack

Рекомендуем

30

Пиратка

ВАЖНО

ВАЖНО

Ghostwire

Пиратка

jed

RePack

nioh2

RePack

RDR2

RePack

NEED FOR SPEED™ PAYBACK

RePack

скачать торрент

Кинопоиск HD

Острые козырьки 6 сезон

6 сезон

FAR CRY 6

RePack

скачать торрент

Лицензия

скачать торрент

MVO

1

1 сезон

скачать торрент

1 сезон

скачать торрент

Лицензия

  

Скалолаз / Cliffhanger (Ренни Харлин) [1993, боевик, триллер, приключения, UHD BDRip 2160p] MVO + DVO + 3xAVO

Скалолаз через торрент piratbit.org

Размер: 48.34 GB | Добавлен: 3 года 11 мес. назад | Торрент скачан:12 раз
Смотреть онлайн | Скачать | Поддержите нас   

20-02-2019 10:38 Скалолаз Скачать торрент  

Скалолаз / Cliffhanger«The height of adventure»
Год выпуска: 1993
Страна: Италия, Франция, США
Жанр: Боевик, триллер, приключения
Продолжительность: 01:52:37
Перевод: Профессиональный многоголосый, профессиональный двухголосый, авторский
Субтитры: Русские, английские, французские
Режиссер: Ренни Харлин
В ролях:

Сильвестр Сталлоне (Gabe Walker), Джон Литгоу (Qualen), Майкл Рукер (Hal Tucker), Джанин Тернер (Jessie Deighan), Рекс Линн (Richard Travers), Кэролайн Гудолл (Kristel), Леон (Kynette), Крэйг Фэйрбрасс (Delmar), Грегори Скотт Камминс (Ryan), Денис Форест (Heldon), Мишель Джойнер (Sarah), Макс Перлих (Evan)
Описание:
В горах после снежной лавины теряются 5 человек. На их поиски отправляется один из лучших альпинистов и горных проводников — Гейб Уокер. Неожиданно он понимает, что его специально заманили в горы для совершенно другого дела. Также становится ясно, что Гейб станет нежелательным свидетелем, от которого без раздумья «избавятся». Но свою жизнь он терять так просто не собирается и объявляет безжалостную войну банде вооруженных до зубов боевиков под предводительством международного террориста Эрика Куалена…
Рейтинг:

MPAA: R - Лицам до 17 лет обязательно присутствие взрослого
Качество: UHD BDRip 2160p
Формат: MKV
Видео: HEVC HDR, 39100 Кбит/с, 3840x1600, 23.976 кадр/с, 10 бит
Аудио: Russian: 48 kHz, AC3, 2.0 (L,R), 192.00 kbps avg - РТР_Профессиональный (многоголосый закадровый)_включён по умолчанию
Аудио: Russian: DTS-HD MA 5.1 / 48 kHz / 4382 kbps / 24-bit (DTS Core: 5.1 / 48 kHz / 1509 kbps / 24-bit) - R5 (Тwister)-Профессиональный (двухголосый закадровый)
Аудио: Russian: DTS-HD MA 5.1 / 48 kHz / 4383 kbps / 24-bit (DTS Core: 5.1 / 48 kHz / 1509 kbps / 24-bit) - Ю.Живов
Аудио: Russian: DTS-HD MA 5.1 / 48 kHz / 4375 kbps / 24-bit (DTS Core: 5.1 / 48 kHz / 1509 kbps / 24-bit) - В.Горчаков
Аудио: Russian: DTS-HD MA 5.1 / 48 kHz / 4380 kbps / 24-bit (DTS Core: 5.1 / 48 kHz / 1509 kbps / 24-bit) - А.Гаврилов_"новой"
Аудио: Ukrainian: 48 kHz, AC3, 2.0 (L,R), 192.00 kbps avg - ТК "2+2"_Профессиональный (двухголосый закадровый)
Аудио: English: 48 kHz, TrueHD+Atmos , 7.1 (L,R), 3726.00 kbps avg
Аудио: English: 48 kHz, AC3, 5.1 (L,R), 640.00 kbps avg
Навигация по главам: есть

Общее
Уникальный идентификатор : 181174714297037415537499846879111532165 (0x884CFB11F9EF30AE9D0B0E288AABCE85)
Полное имя : D:\Мои раздачи\Передел\Cliffhanger.1993.2160p.2160p.BDRip.x265.10bit.HDR.Master5.mkv
Формат : Matroska
Версия формата : Version 4 / Version 2
Размер файла : 48,3 Гбайт
Продолжительность : 1 ч. 52 м.
Режим общего битрейта : Переменный
Общий поток : 61,4 Мбит/сек
Название фильма : Cliffhanger.1993.2160p.2160p.BDRip.x265.10bit.HDR.Master5
Дата кодирования : UTC 2019-02-20 06:39:09
Программа кодирования : mkvmerge v7.9.0 ('Birds') 64bit
Библиотека кодирования : libebml v1.3.1 + libmatroska v1.4.2
Обложка : Yes
Attachments : cover_land.jpg / small_cover.jpg / small_cover_land.jpg / cover.jpg

Видео
Идентификатор : 1
Формат : HEVC
Формат/Информация : High Efficiency Video Coding
Коммерческое название : HDR10
Профиль формата : Main 10@L5.1@High
Идентификатор кодека : V_MPEGH/ISO/HEVC
Продолжительность : 1 ч. 52 м.
Битрейт : 39,1 Мбит/сек
Ширина : 3840 пикселей
Высота : 1600 пикселей
Соотношение сторон : 2,40:1
Режим частоты кадров : Постоянный
Частота кадров : 23,976 (24000/1001) кадра/сек
Цветовое пространство : YUV
Субдискретизация насыщенности : 4:2:0 (Type 2)
Битовая глубина : 10 бит
Бит/(Пиксели*Кадры) : 0.265
Размер потока : 30,7 Гбайт (64%)
Заголовок : Cliffhanger.1993.2160p.2160p.BDRip.x265.10bit.HDR.Master5
Библиотека кодирования : x265 3.0_RC+13-ae085e5cd8a2:[Windows][GCC 8.2.1][64 bit] 10bit
Настройки программы : cpuid=1111039 / frame-threads=16 / numa-pools=24,24,24,24 / wpp / no-pmode / no-pme / no-psnr / no-ssim / log-level=2 / input-csp=1 / input-res=3840x1600 / interlace=0 / total-frames=0 / level-idc=51 / high-tier=1 / uhd-bd=0 / ref=3 / no-allow-non-conformance / repeat-headers / annexb / aud / hrd / info / hash=0 / no-temporal-layers / no-open-gop / min-keyint=1 / keyint=24 / gop-lookahead=0 / bframes=4 / b-adapt=2 / b-pyramid / bframe-bias=0 / rc-lookahead=25 / lookahead-slices=4 / scenecut=40 / radl=0 / no-splice / no-intra-refresh / ctu=64 / min-cu-size=8 / no-rect / no-amp / max-tu-size=32 / tu-inter-depth=1 / tu-intra-depth=1 / limit-tu=0 / rdoq-level=0 / dynamic-rd=0.00 / no-ssim-rd / signhide / no-tskip / nr-intra=0 / nr-inter=0 / no-constrained-intra / strong-intra-smoothing / max-merge=2 / limit-refs=3 / no-limit-modes / me=1 / subme=2 / merange=57 / temporal-mvp / weightp / no-weightb / no-analyze-src-pics / deblock=0:0 / no-sao / no-sao-non-deblock / rd=3 / no-early-skip / rskip / no-fast-intra / no-tskip-fast / no-cu-lossless / no-b-intra / no-splitrd-skip / rdpenalty=0 / psy-rd=2.00 / psy-rdoq=0.00 / no-rd-refine / no-lossless / cbqpoffs=0 / crqpoffs=0 / rc=crf / crf=16.0 / qcomp=0.60 / qpstep=4 / stats-write=0 / stats-read=0 / vbv-maxrate=160000 / vbv-bufsize=160000 / vbv-init=0.9 / crf-max=0.0 / crf-min=0.0 / ipratio=1.40 / pbratio=1.30 / aq-mode=1 / aq-strength=1.00 / cutree / zone-count=0 / no-strict-cbr / qg-size=32 / no-rc-grain / qpmax=69 / qpmin=0 / no-const-vbv / sar=1 / overscan=0 / videoformat=5 / range=0 / colorprim=9 / transfer=16 / colormatrix=9 / chromaloc=1 / chromaloc-top=2 / chromaloc-bottom=2 / display-window=0 / master-display=G(13250,34500)B(7500,3000)R(34000,16000)WP(15635,16450)L(40000000,50) / max-cll=10000,1577 / min-luma=0 / max-luma=1023 / log2-max-poc-lsb=8 / vui-timing-info / vui-hrd-info / slices=1 / opt-qp-pps / opt-ref-list-length-pps / no-multi-pass-opt-rps / scenecut-bias=0.05 / no-opt-cu-delta-qp / no-aq-motion / hdr / hdr-opt / no-dhdr10-opt / no-idr-recovery-sei / analysis-reuse-level=5 / scale-factor=0 / refine-intra=0 / refine-inter=0 / refine-mv=0 / refine-ctu-distortion=0 / no-limit-sao / ctu-info=0 / no-lowpass-dct / refine-analysis-type=0 / copy-pic=1 / max-ausize-factor=1.0 / no-dynamic-refine / no-single-sei / no-hevc-aq / qp-adaptation-range=1.00
Default : Да
Forced : Нет
Цветовой диапазон : Limited
Основные цвета : BT.2020
Характеристики трансфера : PQ
Коэффициенты матрицы : BT.2020 non-constant
MasteringDisplay_ColorPrimaries : Display P3
MasteringDisplay_Luminance : min: 0.0050 cd/m2, max: 4000 cd/m2
MaxCLL : 10000 cd/m2
MaxFALL : 1577 cd/m2

Аудио #1
Идентификатор : 2
Формат : AC-3
Формат/Информация : Audio Coding 3
Идентификатор кодека : A_AC3
Продолжительность : 1 ч. 52 м.
Вид битрейта : Постоянный
Битрейт : 192 Кбит/сек
Каналы : 2 канала
Расположение каналов : Front: L R
Частота : 48,0 КГц
Частота кадров : 31,250 кадров/сек (1536 SPF)
Битовая глубина : 16 бит
Метод сжатия : С потерями
Размер потока : 155 Мбайт (0%)
Заголовок : РТР
Язык : Russian
ServiceKind/String : Complete Main
Default : Нет
Forced : Да

Аудио #2
Идентификатор : 3
Формат : DTS
Формат/Информация : Digital Theater Systems
Профиль формата : MA / Core
Идентификатор кодека : A_DTS
Продолжительность : 1 ч. 52 м.
Вид битрейта : Переменный / Постоянный
Битрейт : 4382 Кбит/сек / 1509 Кбит/сек
Каналы : 6 каналов
Расположение каналов : Front: L C R, Side: L R, LFE
Частота : 48,0 КГц
Частота кадров : 93,750 кадра/сек (512 SPF)
Битовая глубина : 24 бит
Метод сжатия : Без потерь / Lossy
Размер потока : 3,45 Гбайт (7%)
Заголовок : R5 (Twister)
Язык : Russian
Default : Нет
Forced : Нет

Аудио #3
Идентификатор : 4
Формат : DTS
Формат/Информация : Digital Theater Systems
Профиль формата : MA / Core
Идентификатор кодека : A_DTS
Продолжительность : 1 ч. 52 м.
Вид битрейта : Переменный / Постоянный
Битрейт : 4383 Кбит/сек / 1509 Кбит/сек
Каналы : 6 каналов
Расположение каналов : Front: L C R, Side: L R, LFE
Частота : 48,0 КГц
Частота кадров : 93,750 кадра/сек (512 SPF)
Битовая глубина : 24 бит
Метод сжатия : Без потерь / Lossy
Размер потока : 3,45 Гбайт (7%)
Заголовок : Ю.Живов
Default : Нет
Forced : Нет

Аудио #4
Идентификатор : 5
Формат : DTS
Формат/Информация : Digital Theater Systems
Профиль формата : MA / Core
Идентификатор кодека : A_DTS
Продолжительность : 1 ч. 52 м.
Вид битрейта : Переменный / Постоянный
Битрейт : 4375 Кбит/сек / 1509 Кбит/сек
Каналы : 6 каналов
Расположение каналов : Front: L C R, Side: L R, LFE
Частота : 48,0 КГц
Частота кадров : 93,750 кадра/сек (512 SPF)
Битовая глубина : 24 бит
Метод сжатия : Без потерь / Lossy
Размер потока : 3,44 Гбайт (7%)
Заголовок : В. Горчаков
Язык : Russian
Default : Нет
Forced : Нет

Аудио #5
Идентификатор : 6
Формат : DTS
Формат/Информация : Digital Theater Systems
Профиль формата : MA / Core
Идентификатор кодека : A_DTS
Продолжительность : 1 ч. 52 м.
Вид битрейта : Переменный / Постоянный
Битрейт : 4380 Кбит/сек / 1509 Кбит/сек
Каналы : 6 каналов
Расположение каналов : Front: L C R, Side: L R, LFE
Частота : 48,0 КГц
Частота кадров : 93,750 кадра/сек (512 SPF)
Битовая глубина : 24 бит
Метод сжатия : Без потерь / Lossy
Размер потока : 3,45 Гбайт (7%)
Заголовок : А. Гаврилов
Язык : Russian
Default : Нет
Forced : Нет

Аудио #6
Идентификатор : 7
Формат : AC-3
Формат/Информация : Audio Coding 3
Идентификатор кодека : A_AC3
Продолжительность : 1 ч. 52 м.
Вид битрейта : Постоянный
Битрейт : 192 Кбит/сек
Каналы : 2 канала
Расположение каналов : Front: L R
Частота : 48,0 КГц
Частота кадров : 31,250 кадров/сек (1536 SPF)
Битовая глубина : 16 бит
Метод сжатия : С потерями
Размер потока : 155 Мбайт (0%)
Заголовок : ТК "2+2"
Язык : Ukrainian
ServiceKind/String : Complete Main
Default : Нет
Forced : Нет

Аудио #7
Идентификатор : 8
Формат : TrueHD
Профиль формата : TrueHD+Atmos / TrueHD
Идентификатор кодека : A_TRUEHD
Продолжительность : 1 ч. 52 м.
Вид битрейта : Переменный
Битрейт : 3726 Кбит/сек
Максимальный битрейт : 6378 Кбит/сек
Каналы : Object Based / 8 каналов
Расположение каналов : Object Based / Front: L C R, Side: L R, Back: L R, LFE
Частота : / 48,0 КГц
Частота кадров : 1200,000 кадров/сек (40 SPF)
Метод сжатия : Без потерь
Задержка видео : 26 мс.
Размер потока : 2,93 Гбайт (6%)
Язык : English
Default : Да
Forced : Нет

Аудио #8
Идентификатор : 9
Формат : AC-3
Формат/Информация : Audio Coding 3
Идентификатор кодека : A_AC3
Продолжительность : 1 ч. 52 м.
Вид битрейта : Постоянный
Битрейт : 640 Кбит/сек
Каналы : 6 каналов
Расположение каналов : Front: L C R, Side: L R, LFE
Частота : 48,0 КГц
Частота кадров : 31,250 кадров/сек (1536 SPF)
Битовая глубина : 16 бит
Метод сжатия : С потерями
Задержка видео : 26 мс.
Размер потока : 516 Мбайт (1%)
Язык : English
ServiceKind/String : Complete Main
Default : Нет
Forced : Нет

Текст #1
Идентификатор : 10
Формат : UTF-8
Идентификатор кодека : S_TEXT/UTF8
Идентификатор кодека/Информация : UTF-8 Plain Text
Продолжительность : 1 ч. 42 м.
Битрейт : 82 бит/сек
ElementCount : 1065
Размер потока : 62,4 Кбайт (0%)
Язык : Russian
Default : Нет
Forced : Нет

Текст #2
Идентификатор : 11
Формат : UTF-8
Идентификатор кодека : S_TEXT/UTF8
Идентификатор кодека/Информация : UTF-8 Plain Text
Продолжительность : 1 ч. 42 м.
Битрейт : 48 бит/сек
ElementCount : 1051
Размер потока : 36,4 Кбайт (0%)
Заголовок : eng
Язык : English
Default : Да
Forced : Нет

Текст #3
Идентификатор : 12
Формат : UTF-8
Идентификатор кодека : S_TEXT/UTF8
Идентификатор кодека/Информация : UTF-8 Plain Text
Продолжительность : 1 ч. 50 м.
Битрейт : 41 бит/сек
ElementCount : 1039
Размер потока : 33,3 Кбайт (0%)
Язык : French
Default : Нет
Forced : Нет

Меню
00:00:00.000 : en:Chapter 1
00:06:06.657 : en:Chapter 2
00:13:24.804 : en:Chapter 3
00:22:48.825 : en:Chapter 4
00:27:15.508 : en:Chapter 5
00:34:28.357 : en:Chapter 6
00:40:27.007 : en:Chapter 7
00:49:08.070 : en:Chapter 8
00:55:17.689 : en:Chapter 9
01:03:35.812 : en:Chapter 10
01:11:08.305 : en:Chapter 11
01:18:27.869 : en:Chapter 12
01:26:01.489 : en:Chapter 13
01:32:17.949 : en:Chapter 14
01:35:32.768 : en:Chapter 15
01:41:54.149 : en:Chapter 16



Скачать Скалолаз через торрент https://b.radikal.ru/b34/1811/da/5f514bbcf2c4.png Скачать, смотреть онлайн Скалолаз бесплантно в хорошем качестве Описание: В горах после снежной лавины теряются 5 человек. На их поиски отправляется один из лучших альпинистов и горных проводников — Гейб ... 5 10 1
Торрент: Зарегистрирован [2019-02-20 10:38] · скачан: 12 раз
Статус: √ проверено
Размер: 48.34 GB
Как cкачать? Как скачать Скалолаз через торрент | UTorrent

% Раздел Тема Автор DL S | L
Ultra HD (UHD: 2K, 4K, 8K) [ 70.26 GB ] Скалолаз / Cliffhanger | MVO + 3xDVO + 2xMVO + 4xAVO + VO | 2160p sheker187 Скачать
1 | 0

28-11-2019 20:33  


Отключить вcю реклaмy на сайте, в т.ч. и в плеере онлайн просмотра!

    Дорогой пользователь! Огромная просьба, поблагодарите релизера, оцените раздачу и оставьте свои комментарий, если Вы скачали Скалолаз через торрент бесплатно!!
    Комментировать посты могут только пользователи прошедшие не сложную регистрацию
    Показать сообщения:    


    Скалолаз через торрент
    Скачать бесплатно Скалолаз
    Скалолаз скачать торрент
    Скалолаз смотреть онлайн
    Cкачать фильм Скалолаз бесплатно
    Скалолаз скачать торрент в хорошем качестве
    Скалолаз смотреть онлайн бесплатно в хорошем качестве
    Вы не можете начинать темы
    Вы не можете отвечать на сообщения
    Вы не можете редактировать свои сообщения
    Вы не можете удалять свои сообщения
    Вы не можете голосовать в опросах
    Вы не можете прикреплять файлы к сообщениям
    Вы можете скачивать файлы
    Скалолаз / Cliffhanger [1993, боевик, триллер, приключения, UHD BDRip 2160p] MVO + DVO + 3xAVO смотреть онлайн, скачать торрент picoco.icu