Наша группа ВК в очередной раз забанена мы уходим в Телеграм, присоединяйтесь!!!

Лицензия

30

iTunes

Как приручить дракона 3

iTunes

1

1 сезон

Чернобыль

iTunes

Снегоуборщик

iTunes

Закатать в асфальт

8 сезон

Игра престолов

iTunes

Ральф против интернета Хит недели

ИГРА 18+

pack

ВАЖНО

!!Акция!!

Alien_RageХит недели

RePack

Resident Evil 21
pack

RePack

Metro:Exodus

!!Акция!!

Alien_Rage

RePack

fifa19

RePack

Assassins Creed: Odyssey

RePack

NEED FOR SPEED™ PAYBACK

3 сезон

9 сезон

Бесстыжие 9 сезон

Все сериалы

все сериалы на PB.wtf

RePack

FAR CRY 5
Ребята, катастрофически не хватает 2730р. для оплаты серверов за АПРЕЛЬ (всвязи с блокировками трафик упал в 3 раза), 1-2р., выручайте.
  

Семья по-быстрому / Instant Family (Шон Андерс) [2018, драма, комедия, WEB-DL 1080p] MVO [@MUZOBOZ@] piratbit.org

Семья по-быстрому через торрент piratbit.org

Раздают: 5 [ 0 KB/s ]
Размер: 5.44 GB | Добавлен: 3 мес. 1 д. назад | Торрент скачан:530 раз
Скачать  

21-02-2019 18:02 Семья по-быстрому Скачать торрент  

Семья по-быстрому / Instant Family Год выпуска: 2018
Страна: США
Жанр: драма, комедия
Продолжительность: 01:59:21
Перевод: Любительский (многоголосый) | @MUZOBOZ@
Субтитры: отсутствуют

Режиссер: Шон Андерс

rating

В ролях:

Марк Уолберг, Роуз Бирн, Изабела Монер, Густаво Куирос мл., Джулианна Гамиз, Октавия Спенсер, Тиг Нотаро, Том Сегура, Эллин Рэйчел, Бритт Рентшлер

Описание:

Усыновляя трех детей, бездетная супружеская пара не представляет, с каким количеством проблем им придется столкнуться...

Качество: WEB-DL 1080p
Формат: MKV

Видео: h.264, 6 135 Кбит/с, 1920x792
Аудио#1: Русский, (AC3, 2 ch, 384 Кбит/с)
скриншот  скриншот  скриншот  

Общее
Уникальный идентификатор : 233385077245800019442528934647337800837 (0xAF9454B4D1B48A878FDEDF11547F5485)
Полное имя : D:\Instant.Family.2018.P.WEB-DL.1O8Op.mkv
Формат : Matroska
Версия формата : Version 2
Размер файла : 5,44 Гбайт
Продолжительность : 1 ч. 59 м.
Режим общего битрейта : Переменный
Общий поток : 6521 Кбит/сек
Дата кодирования : UTC 2019-02-21 02:26:06
Программа кодирования : mkvmerge v8.3.0 ('Over the Horizon') 64bit
Библиотека кодирования : libebml v1.3.1 + libmatroska v1.4.2

Видео
Идентификатор : 1
Формат : AVC
Формат/Информация : Advanced Video Codec
Профиль формата : High@L4.1
Параметр CABAC формата : Да
Параметр RefFrames формата : 4 кадра
Идентификатор кодека : V_MPEG4/ISO/AVC
Продолжительность : 1 ч. 59 м.
Вид битрейта : Переменный
Битрейт : 6135 Кбит/сек
Максимальный битрейт : 6800 Кбит/сек
Ширина : 1912 пикселей
Высота : 792 пикселя
Соотношение сторон : 2,40:1
Режим частоты кадров : Постоянный
Частота кадров : 23,976 (24000/1001) кадра/сек
Стандарт вещания : Component
Цветовое пространство : YUV
Субдискретизация насыщенности : 4:2:0
Битовая глубина : 8 бит
Тип развёртки : Прогрессивная
Бит/(Пиксели*Кадры) : 0.165
Размер потока : 5,01 Гбайт (92%)
Default : Да
Forced : Нет
Цветовой диапазон : Limited
Основные цвета : BT.709
Характеристики трансфера : BT.709
Коэффициенты матрицы : BT.709

Аудио
Идентификатор : 2
Формат : AC-3
Формат/Информация : Audio Coding 3
Расширение режима : CM (complete main)
Параметр Endianness формата : Big
Идентификатор кодека : A_AC3
Продолжительность : 1 ч. 59 м.
Вид битрейта : Постоянный
Битрейт : 384 Кбит/сек
Каналы : 2 канала
Расположение каналов : Front: L R
Частота : 48,0 КГц
Частота кадров : 31,250 кадров/сек (1536 spf)
Метод сжатия : С потерями
Размер потока : 328 Мбайт (6%)
Default : Да
Forced : Нет

piratbit.org



Скачать Семья по-быстрому через торрент http://img10.lostpic.net/2018/11/29/5aa54647281077e928d4c488de8db90d.jpg Скачать фильм Семья по-быстрому через торрент бесплантно в хорошем качестве Описание: Усыновляя трех детей, бездетная супружеская пара не представляет, с каким количеством проблем им придется ... 9.6 10 14
Info! Золотая раздача, скачанное не засчитывается.
Торрент: Зарегистрирован [2019-02-21 18:02] · скачан: 530 раз
Статус: T временная
Размер: 5.44 GB
Как cкачать? Как скачать Семья по-быстрому через торрент | qTorrent

% Раздел Тема Автор DL S | L
Фильмы 2018 [DVDrip, WEB-DLRip, HDrip] (DUB, MVO) [ 746 MB ] Семья по-быстрому / Instant Family [2018 BDRip] DUB [ BD EUR] bober100 Скачать
3 | 0
Фильмы 2018 [DVDrip, WEB-DLRip, HDrip] (DUB, MVO) [ 1.46 GB ] Семья по-быстрому / Instant Family [2018 BDRip] - [] Twi7ter Скачать
81 | 0
Фильмы (Blu-ray, BD-Remux, HDDVD) [ 26.39 GB ] Семья по-быстрому / Instant Family [2018 BDRemux 1080p] [] sheker187 Скачать
2 | 0
Фильмы [HD 720p, 1080p] (Хороший звук DUB, MVO) [ 14.12 GB ] Семья по-быстрому / Instant Family [2018 BDRip 1080p] [] sheker187 Скачать
15 | 0
T Фильмы 2018 [DVDrip, WEB-DLRip, HDrip] (DUB, MVO) [ 2.01 GB ] Семья по-быстрому / Instant Family [2018 BDRip-AVC] MVO [HDRezka Studio] bober100 Скачать
12 | 0
T Фильмы (Blu-ray, BD-Remux, HDDVD) [ 26.21 GB ] Семья по-быстрому / Instant Family [2018 BD Remux 1080p] MVO [HDrezka Studio] bober100 Скачать
2 | 0
T Фильмы [HD 720p, 1080p] (Хороший звук DUB, MVO) [ 9.35 GB ] Семья по-быстрому / Instant Family [2018 BDRip 1080p] MVO [HDrezka Studio] bober100 Скачать
12 | 0


>> Регистрируемся здесь <<






Отзывы и комментарии о схеме читаем и пишем здесь: ---> Отзывы и комментарии о схеме

Новые благодарочки в телеграм довольных пользователей:
скриншот   скриншот   скриншот   скриншот   скриншот

16-04-2019 00:15 Семья по-быстрому Скачать торрент  

    Дорогой пользователь! Огромная просьба, поблагодарите релизера, оцените раздачу и оставьте свои комментарий, если Вы скачали Семья по-быстрому через торрент бесплатно! Внесите свою лепту в развитие PiratBit!
    Комментировать посты могут только пользователи прошедшие не сложную регистрацию
    Показать сообщения:    

    Семья по-быстрому через торрент
    Скачать бесплатно Семья по-быстрому
    Семья по-быстрому скачать торрент
    Семья по-быстрому смотреть онлайн
    Cкачать фильм Семья по-быстрому бесплатно
    Семья по-быстрому скачать торрент в хорошем качестве
    Семья по-быстрому смотреть онлайн бесплатно в хорошем качестве


    Вы не можете начинать темы
    Вы не можете отвечать на сообщения
    Вы не можете редактировать свои сообщения
    Вы не можете удалять свои сообщения
    Вы не можете голосовать в опросах
    Вы не можете прикреплять файлы к сообщениям
    Вы можете скачивать файлы