Доктор Стрэндж

Лицензия

Добыча

MVO

Дом дракона

1 сезон

Тор

Лицензия

Мэверик

Лицензия

Там, где раки поют

MVO

Властелин колец

1 сезон

Ultimate

pack

Рекомендуем

30

Repack

ВАЖНО

ВАЖНО

Ghostwire

RePack

jed

RePack

nioh2

RePack

RDR2

RePack

NEED FOR SPEED™ PAYBACK

RePack

скачать торрент

Кинопоиск HD

Острые козырьки 6 сезон

6 сезон

FAR CRY 6

RePack

скачать торрент

Лицензия

скачать торрент

MVO

1

1 сезон

скачать торрент

1 сезон

скачать торрент

Лицензия

  

У крутого яра (Кира Муратова, Александр Муратов) [1962, СССР, драма, SATRip от AVP Studio]

У крутого яра через торрент piratbit.org

Размер: 745 MB | Добавлен: 3 года 7 мес. назад | Торрент скачан:3 раза
Смотреть онлайн | Скачать   

23-02-2019 09:09 У крутого яра Скачать торрент  

У крутого яра
Страна: СССР
Производство: К/ст им. Горького

Жанр: драма
Год выпуска: 1962
Продолжительность: 00:43:18

Перевод: Не требуется
Cубтитры: нет
Оригинальная аудиодорожка: русский

Режиссер: Кира Муратова, Александр Муратов

В ролях:
Валерий Исаков, Марчелла Чеботаренко, Виктор Маркин, Георгий Светлани, Пётр Любешкин, Владимир Иванов...
Об актёрах подробней

Описание:
По одноименному рассказу Г. Троепольского.
Поэтический рассказ о людях, живущих в деревне. В центре сюжета - история о том, как молодой парень Сеня бесстрашно и мужественно пошел на поединок с волками, чтобы спасти колхозное стадо.

Исходник: DVB
Качество видео: SATRip
Формат видео: AVI

Видео: 704x528 (4:3), 25,000 кадров/сек, XviD ~ 2205 kbps avg, 0.237 bit/pixel
Аудио: 48 kHz, Dolby Digital AC3 2.0, 192 kbps

Раздача от:
Общее
Полное имя : U.krutogo.yara.1962.SATRip_[New-team]_by_AVP_Studio.avi
Формат : AVI
Формат/Информация : Audio Video Interleave
Размер файла : 745 Мбайт
Продолжительность : 43 м. 18 с.
Общий поток : 2406 Кбит/сек
Программа кодирования : VirtualDubMod 1.5.10.3 | www.virtualdub-fr.org || (build 2550/release)
Библиотека кодирования : VirtualDubMod build 2550/release

Видео
Идентификатор : 0
Формат : MPEG-4 Visual
Профиль формата : Advanced Simple@L5
Настройки формата : BVOP1 / Custom Matrix
Параметр BVOP формата : 1
Параметр QPel формата : Нет
Параметр GMC формата : Без точки перехода
Параметр матрицы формата : Выборочная
Идентификатор кодека : XVID
Идентификатор кодека/Подсказка : XviD
Продолжительность : 43 м. 18 с.
Битрейт : 2205 Кбит/сек
Ширина : 704 пикселя
Высота : 528 пикселей
Соотношение сторон : 4:3
Частота кадров : 25,000 кадров/сек
Цветовое пространство : YUV
Субдискретизация насыщенности : 4:2:0
Битовая глубина : 8 бит
Тип развёртки : Прогрессивная
Метод сжатия : С потерями
Бит/(Пиксели*Кадры) : 0.237
Размер потока : 683 Мбайт (92%)
Библиотека кодирования : XviD 73

Аудио
Идентификатор : 1
Формат : AC-3
Формат/Информация : Audio Coding 3
Коммерческое название : Dolby Digital
Идентификатор кодека : 2000
Продолжительность : 43 м. 18 с.
Вид битрейта : Постоянный
Битрейт : 192 Кбит/сек
Каналы : 2 канала
Channel layout : L R
Частота : 48,0 КГц
Частота кадров : 31,250 кадров/сек (1536 SPF)
Битовая глубина : 16 бит
Метод сжатия : С потерями
Размер потока : 59,5 Мбайт (8%)
Выравнивание : Разделение по промежуткам
Продолжительность промежутка : 40 мс. (1,00 видеокадр)
Время предзагрузки промежутка : 500 мс



Скачать У крутого яра через торрент http://picplus.ru/img/1902/23/55dd0f21.png Скачать, смотреть онлайн У крутого яра бесплантно в хорошем качестве Описание:По одноименному рассказу Г. Троепольского.Поэтический рассказ о людях, живущих в деревне. В центре сюжета - история о том, как ... 5 10 1
Info! Золотая раздача, скачанное не засчитывается.
Торрент: Зарегистрирован [2019-02-23 09:09] · скачан: 3 раз
Статус: √ проверено
Размер: 745 MB
Как cкачать? Как скачать У крутого яра через торрент | UTorrent

% Раздел Тема Автор DL S | L
Кино СССР [ 745 MB ] У крутого яра | | SATRip-AVC от AVP Studio AVP Studio Скачать
1 | 0

28-11-2019 20:33  


Отключить вcю реклaмy на сайте, в т.ч. и в плеере онлайн просмотра!

    Дорогой пользователь! Огромная просьба, поблагодарите релизера, оцените раздачу и оставьте свои комментарий, если Вы скачали У крутого яра через торрент бесплатно!!
    Комментировать посты могут только пользователи прошедшие не сложную регистрацию
    Показать сообщения:    


    У крутого яра через торрент
    Скачать бесплатно У крутого яра
    У крутого яра скачать торрент
    У крутого яра смотреть онлайн
    Cкачать фильм У крутого яра бесплатно
    У крутого яра скачать торрент в хорошем качестве
    У крутого яра смотреть онлайн бесплатно в хорошем качестве
    Вы не можете начинать темы
    Вы не можете отвечать на сообщения
    Вы не можете редактировать свои сообщения
    Вы не можете удалять свои сообщения
    Вы не можете голосовать в опросах
    Вы не можете прикреплять файлы к сообщениям
    Вы можете скачивать файлы