2 сезон

iTunes

WEBRip

1

2 сезон

iTunes

1 сезон

1 сезон

RePack

30

Новинка

ВАЖНО

ИГРА 18+

pack

RePack

MK11
pack

Легкие деньги

RePack

jed

RePack

fifa19

RePack

RDR2

RePack

NEED FOR SPEED™ PAYBACK

4 сезон

9 сезон

Бесстыжие 9 сезон

Все сериалы

все сериалы на PB.wtf

RePack

FAR CRY 5

Anonymous, доброй ночи, мы не успеваем собрать деньги на оплату серверов за февраль, помогите нам пожалуйста в это трудное время. В качестве благодарности мы отключим Вам всю рекламу на сайте (укажите свой ник в строку Ваше имя)!

×
  
Magnet ссылка

Сможете ли вы меня простить? / Can You Ever Forgive Me? (Мариэль Хеллер) [2018, драма, комедия, криминал, биография, WEB-DLRip-AVC] [Ukr DUB] [iTunes] + [MVO] (DniproFilm) piratbit.org

Сможете ли вы меня простить? через торрент piratbit.org

Размер: 2.18 GB | Добавлен: 2 года назад | Торрент скачан:14 раз
Скачать  

25-02-2019 21:11 Сможете ли вы меня простить? Скачать торрент  

Сможете ли вы меня простить? / Can You Ever Forgive Me?
Год выпуска: 2018
Страна: США
Жанр: драма, комедия, криминал, биография
Продолжительность: 01:46:22
Перевод 1 : Украинский (дублированный)
Перевод 2 : Украинский (многоголосый) - DniproFilm
Субтитры: украинские, английские

Режиссер: Мариэль Хеллер

В ролях: Мелисса МакКарти, Ричард Э. Грант, Долли Уэллс, Бен Фэлкоун, Григорий Коростышевский, Джейн Куртин, Стивен Спинелла, Кристиан Наварро, Пан Банду, Эрик Ларей Харви

Описание: Фильм расскажет о писательнице, которая начала подделывать письма покойных знаменитостей, чтобы свести концы с концами.

rating
скриншот  

Качество : WEB-DLRip-AVC
Формат видео : MKV
Видео : AVC, 1024х428, 1900 kb/s, 23.976 fps
Аудио 1 : 48 kHz, AC3, 2 ch, ~192 kbps - Ukr DUB (iTunes)
Аудио 2 : 48 kHz, AC3, 6 ch, ~384 kbps - Ukr MVO (DniproFilm)
Аудио 3 : 48 kHz, AC3, 6 ch, ~384 kbps - Eng
General
Unique ID : 100526347835734622311207559477778590855 (0x4BA0AB9C0941B158B637168F27FE2C87)
Complete name : E:\INTERNET\Can You Ever Forgive Me (2018) WEB-DLRip-AVC [2xUKR_ENG] [Hurtom.mkv
Format : Matroska
Format version : Version 4 / Version 2
File size : 2.18 GiB
Duration : 1 h 46 min
Overall bit rate : 2 934 kb/s
Movie name : Чи зможете ви мене пробачити? / Can You Ever Forgive Me? (2018)
Encoded date : UTC 2019-02-25 15:53:07
Writing application : mkvmerge v31.0.0 ('Dolores In A Shoestand') 64-bit
Writing library : libebml v1.3.6 + libmatroska v1.4.9
Cover : Yes
Attachments : cover.jpg

Video
ID : 1
Format : AVC
Format/Info : Advanced Video Codec
Format profile : High@L4.1
Format settings : CABAC / 9 Ref Frames
Format settings, CABAC : Yes
Format settings, RefFrames : 9 frames
Codec ID : V_MPEG4/ISO/AVC
Duration : 1 h 46 min
Bit rate : 1 974 kb/s
Width : 1 024 pixels
Height : 428 pixels
Display aspect ratio : 2.40:1
Frame rate mode : Constant
Frame rate : 23.976 (24000/1001) FPS
Color space : YUV
Chroma subsampling : 4:2:0
Bit depth : 8 bits
Scan type : Progressive
Bits/(Pixel*Frame) : 0.188
Stream size : 1.42 GiB (65%)
Writing library : x264 core 142 r2431 ac76440
Encoding settings : cabac=1 / ref=9 / deblock=1:-1:-1 / analyse=0x3:0x113 / me=umh / subme=11 / psy=1 / psy_rd=1.00:0.15 / mixed_ref=1 / me_range=48 / chroma_me=1 / trellis=2 / 8x8dct=1 / cqm=0 / deadzone=21,11 / fast_pskip=0 / chroma_qp_offset=-5 / threads=12 / lookahead_threads=2 / sliced_threads=0 / nr=0 / decimate=1 / interlaced=0 / bluray_compat=0 / constrained_intra=0 / bframes=8 / b_pyramid=2 / b_adapt=2 / b_bias=0 / direct=1 / weightb=1 / open_gop=0 / weightp=2 / keyint=240 / keyint_min=23 / scenecut=40 / intra_refresh=0 / rc_lookahead=60 / rc=2pass / mbtree=1 / bitrate=1974 / ratetol=1.0 / qcomp=0.60 / qpmin=10 / qpmax=69 / qpstep=4 / cplxblur=20.0 / qblur=0.5 / vbv_maxrate=50000 / vbv_bufsize=62500 / nal_hrd=none / filler=0 / ip_ratio=1.40 / aq=1:1.00
Language : English
Default : Yes
Forced : No

Audio #1
ID : 2
Format : AC-3
Format/Info : Audio Coding 3
Format settings, Endianness : Big
Codec ID : A_AC3
Duration : 1 h 46 min
Bit rate mode : Constant
Bit rate : 192 kb/s
Channel(s) : 2 channels
Channel positions : Front: L R
Sampling rate : 48.0 kHz
Frame rate : 31.250 FPS (1536 SPF)
Bit depth : 16 bits
Compression mode : Lossy
Stream size : 146 MiB (7%)
Title : AC3 2.0 @ 192 kbps - DUB
Language : Ukrainian
Service kind : Complete Main
Default : Yes
Forced : Yes

Audio #2
ID : 3
Format : AC-3
Format/Info : Audio Coding 3
Format settings, Endianness : Big
Codec ID : A_AC3
Duration : 1 h 46 min
Bit rate mode : Constant
Bit rate : 384 kb/s
Channel(s) : 6 channels
Channel positions : Front: L C R, Side: L R, LFE
Sampling rate : 48.0 kHz
Frame rate : 31.250 FPS (1536 SPF)
Bit depth : 16 bits
Compression mode : Lossy
Stream size : 292 MiB (13%)
Title : AC3 5.1 @ 384 kbps - MVO Dniprofilm
Language : Ukrainian
Service kind : Complete Main
Default : No
Forced : No

Audio #3
ID : 4
Format : AC-3
Format/Info : Audio Coding 3
Format settings, Endianness : Big
Codec ID : A_AC3
Duration : 1 h 46 min
Bit rate mode : Constant
Bit rate : 384 kb/s
Channel(s) : 6 channels
Channel positions : Front: L C R, Side: L R, LFE
Sampling rate : 48.0 kHz
Frame rate : 31.250 FPS (1536 SPF)
Bit depth : 16 bits
Compression mode : Lossy
Stream size : 292 MiB (13%)
Title : AC3 5.1 @ 384 kbps
Language : English
Service kind : Complete Main
Default : No
Forced : No

Text #1
ID : 5
Format : UTF-8
Codec ID : S_TEXT/UTF8
Codec ID/Info : UTF-8 Plain Text
Title : Forced
Language : Ukrainian
Default : Yes
Forced : Yes

Text #2
ID : 6
Format : UTF-8
Codec ID : S_TEXT/UTF8
Codec ID/Info : UTF-8 Plain Text
Title : Full
Language : Ukrainian
Default : No
Forced : No

Text #3
ID : 7
Format : UTF-8
Codec ID : S_TEXT/UTF8
Codec ID/Info : UTF-8 Plain Text
Title : Full
Language : English
Default : No
Forced : No

Menu
00:00:00.000 : en:Chapter 01
00:05:34.626 : en:Chapter 02
00:11:11.337 : en:Chapter 03
00:16:56.472 : en:Chapter 04
00:23:20.646 : en:Chapter 05
00:26:35.674 : en:Chapter 06
00:31:59.705 : en:Chapter 07
00:37:39.086 : en:Chapter 08
00:42:33.171 : en:Chapter 09
00:46:02.839 : en:Chapter 10
00:49:24.415 : en:Chapter 11
00:55:56.931 : en:Chapter 12
00:58:11.648 : en:Chapter 13
01:01:06.488 : en:Chapter 14
01:03:35.344 : en:Chapter 15
01:07:18.941 : en:Chapter 16
01:12:41.846 : en:Chapter 17
01:16:15.934 : en:Chapter 18
01:21:51.769 : en:Chapter 19
01:24:46.692 : en:Chapter 20
01:26:39.011 : en:Chapter 21
01:30:45.507 : en:Chapter 22
01:36:26.889 : en:Chapter 23
01:38:57.163 : en:Chapter 24

скриншот  скриншот  скриншот  
piratbit.org



Скачать Сможете ли вы меня простить? через торрент https://c.radikal.ru/c25/1902/01/7108767e47e0.jpg Скачать фильм Сможете ли вы меня простить? через торрент бесплантно в хорошем качестве Описание: Фильм расскажет о писательнице, которая начала подделывать письма покойных знаменитостей, чтобы свести концы с ... 5.5 10 2
Торрент: Зарегистрирован [2019-02-25 21:11] · скачан: 14 раз
Статус: √ проверено
Размер: 2.18 GB
Как cкачать? Как скачать Сможете ли вы меня простить? через торрент | UTorrent

28-11-2019 20:33  

Отключить всю рекламу на сайте

    Дорогой пользователь! Огромная просьба, поблагодарите релизера, оцените раздачу и оставьте свои комментарий, если Вы скачали Сможете ли вы меня простить? через торрент бесплатно! Внесите свою лепту в развитие PiratBit!
    Комментировать посты могут только пользователи прошедшие не сложную регистрацию
    Показать сообщения:    

    Сможете ли вы меня простить? через торрент
    Скачать бесплатно Сможете ли вы меня простить?
    Сможете ли вы меня простить? скачать торрент
    Сможете ли вы меня простить? смотреть онлайн
    Cкачать фильм Сможете ли вы меня простить? бесплатно
    Сможете ли вы меня простить? скачать торрент в хорошем качестве
    Сможете ли вы меня простить? смотреть онлайн бесплатно в хорошем качестве


    Вы не можете начинать темы
    Вы не можете отвечать на сообщения
    Вы не можете редактировать свои сообщения
    Вы не можете удалять свои сообщения
    Вы не можете голосовать в опросах
    Вы не можете прикреплять файлы к сообщениям
    Вы можете скачивать файлы