2 сезон

iTunes

WEBRip

1

2 сезон

iTunes

1 сезон

1 сезон

RePack

30

Ultimate

ВАЖНО

ИГРА 18+

pack

RePack

MK11
pack

Легкие деньги

RePack

jed

RePack

fifa19

RePack

RDR2

RePack

NEED FOR SPEED™ PAYBACK

4 сезон

9 сезон

Бесстыжие 9 сезон

Все сериалы

все сериалы на PB.wtf

RePack

FAR CRY 5

Anonymous, доброй ночи, мы не успеваем собрать деньги на оплату серверов за февраль, помогите нам пожалуйста в это трудное время. В качестве благодарности мы отключим Вам всю рекламу на сайте (укажите свой ник в строку Ваше имя)!

×
  
Magnet ссылка

Семья по-быстрому / Instant Family (Шон Андерс) [2018, драма, комедия, BDRip 720p] [Ukr DUB] piratbit.org

Семья по-быстрому через торрент piratbit.org

Раздают: 1 [ 0 KB/s ]
Размер: 4.75 GB | Добавлен: 2 года назад | Торрент скачан:80 раз
Скачать  

24-02-2019 18:31 Семья по-быстрому Скачать торрент  

Семья по-быстрому / Instant Family
Год выпуска: 2018
Страна: США
Жанр: драма, комедия
Продолжительность: 01:58:05
Перевод : Украинский (дублированный)
Субтитры : английские

Режиссер: Шон Андерс

В ролях: Марк Уолберг, Роуз Бирн, Изабела Монер, Густаво Куирос мл., Джулианна Гамиз, Октавия Спенсер, Тиг Нотаро, Том Сегура, Эллин Рэйчел, Бритт Рентшлер

Описание: Усыновляя трех детей, бездетная супружеская пара не представляет, с каким количеством проблем им придется столкнуться...

rating
скриншот  

Качество : BDRip 720p
Формат видео : MKV
Видео : AVC, 1280x536, 23.976 fps, ~5113 kbps avg
Аудио 1: 48 kHz, AC3 Dolby Digital, 2 ch, ~192 kbps - Ukr DUB
Аудио 2: 48 kHz, AC3 Dolby Digital, 6 ch, ~448 kbps - Eng
General
Unique ID : 265927810615668446760714162854112314689 (0xC80FD5567DD2294F7B5041BDBEC4C541)
Complete name : E:\Instant Family (2018) BDRip 720p [UKR_ENG] [Hurtom].mkv
Format : Matroska
Format version : Version 4 / Version 2
File size : 4.75 GiB
Duration : 1 h 58 min
Overall bit rate : 5 754 kb/s
Movie name : Родина за хвилину / Instant Family (2018)
Encoded date : UTC 2019-02-24 11:08:48
Writing application : mkvmerge v31.0.0 ('Dolores In A Shoestand') 64-bit
Writing library : libebml v1.3.6 + libmatroska v1.4.9
Cover : Yes
Attachments : cover.jpg

Video
ID : 1
Format : AVC
Format/Info : Advanced Video Codec
Format profile : High@L4.1
Format settings : CABAC / 5 Ref Frames
Format settings, CABAC : Yes
Format settings, RefFrames : 5 frames
Codec ID : V_MPEG4/ISO/AVC
Duration : 1 h 58 min
Bit rate : 5 113 kb/s
Width : 1 280 pixels
Height : 536 pixels
Display aspect ratio : 2.40:1
Frame rate mode : Constant
Frame rate : 23.976 (24000/1001) FPS
Color space : YUV
Chroma subsampling : 4:2:0
Bit depth : 8 bits
Scan type : Progressive
Bits/(Pixel*Frame) : 0.311
Stream size : 4.12 GiB (87%)
Writing library : x264 core 157 r2935 545de2f
Encoding settings : cabac=1 / ref=5 / deblock=1:-3:-3 / analyse=0x3:0x113 / me=umh / subme=8 / psy=1 / psy_rd=1.00:0.00 / mixed_ref=1 / me_range=16 / chroma_me=1 / trellis=1 / 8x8dct=1 / cqm=0 / deadzone=21,11 / fast_pskip=1 / chroma_qp_offset=-2 / threads=17 / lookahead_threads=2 / sliced_threads=0 / nr=0 / decimate=1 / interlaced=0 / bluray_compat=0 / constrained_intra=0 / bframes=3 / b_pyramid=2 / b_adapt=1 / b_bias=0 / direct=3 / weightb=1 / open_gop=0 / weightp=2 / keyint=250 / keyint_min=23 / scenecut=40 / intra_refresh=0 / rc_lookahead=50 / rc=2pass / mbtree=1 / bitrate=5113 / ratetol=1.0 / qcomp=0.60 / qpmin=0 / qpmax=69 / qpstep=4 / cplxblur=20.0 / qblur=0.5 / ip_ratio=1.40 / aq=1:1.00
Language : English
Default : Yes
Forced : No

Audio #1
ID : 2
Format : AC-3
Format/Info : Audio Coding 3
Format settings, Endianness : Big
Codec ID : A_AC3
Duration : 1 h 58 min
Bit rate mode : Constant
Bit rate : 192 kb/s
Channel(s) : 2 channels
Channel positions : Front: L R
Sampling rate : 48.0 kHz
Frame rate : 31.250 FPS (1536 SPF)
Bit depth : 16 bits
Compression mode : Lossy
Stream size : 162 MiB (3%)
Title : AC3 2.0 @ 192 kbps
Language : Ukrainian
Service kind : Complete Main
Default : Yes
Forced : Yes

Audio #2
ID : 3
Format : AC-3
Format/Info : Audio Coding 3
Format settings, Endianness : Big
Codec ID : A_AC3
Duration : 1 h 58 min
Bit rate mode : Constant
Bit rate : 448 kb/s
Channel(s) : 6 channels
Channel positions : Front: L C R, Side: L R, LFE
Sampling rate : 48.0 kHz
Frame rate : 31.250 FPS (1536 SPF)
Bit depth : 16 bits
Compression mode : Lossy
Stream size : 378 MiB (8%)
Title : AC3 5.1 @ 448 kbps
Language : English
Service kind : Complete Main
Default : No
Forced : No

Text
ID : 4
Format : UTF-8
Codec ID : S_TEXT/UTF8
Codec ID/Info : UTF-8 Plain Text
Title : Full
Language : English
Default : No
Forced : No
скриншот  скриншот  скриншот  
piratbit.org



Скачать Семья по-быстрому через торрент http://img10.lostpic.net/2018/11/29/5aa54647281077e928d4c488de8db90d.jpg Скачать фильм Семья по-быстрому через торрент бесплантно в хорошем качестве Описание: Усыновляя трех детей, бездетная супружеская пара не представляет, с каким количеством проблем им придется ... 5.5 10 2
Info! Серебряная раздача, засчитывается только 50% скачанного.
Торрент: Зарегистрирован [2019-02-24 18:31] · скачан: 80 раз
Статус: T временная
Размер: 4.75 GB
Как cкачать? Как скачать Семья по-быстрому через торрент | UTorrent

% Раздел Тема Автор DL S | L
Фильмы 2018 [DVDrip, WEB-DLRip, HDrip] (DUB, MVO) [ 746 MB ] Семья по-быстрому / Instant Family [2018 BDRip] DUB [ BD EUR] bober100 Скачать
1 | 0
Фильмы 2018 [DVDrip, WEB-DLRip, HDrip] (DUB, MVO) [ 1.46 GB ] Семья по-быстрому / Instant Family [2018 BDRip] - [] Twi7ter Скачать
12 | 0
Фильмы (Blu-ray, BD-Remux, HDDVD) [ 26.39 GB ] Семья по-быстрому / Instant Family [2018 BDRemux 1080p] [] sheker187 Скачать
1 | 0
Фильмы [HD 720p, 1080p] (Хороший звук DUB, MVO) [ 14.12 GB ] Семья по-быстрому / Instant Family [2018 BDRip 1080p] [] sheker187 Скачать
1 | 0
T Фильмы 2018 [DVDrip, WEB-DLRip, HDrip] (DUB, MVO) [ 2.01 GB ] Семья по-быстрому / Instant Family [2018 BDRip-AVC] MVO [HDRezka Studio] bober100 Скачать
3 | 0
T Фильмы (Blu-ray, BD-Remux, HDDVD) [ 26.21 GB ] Семья по-быстрому / Instant Family [2018 BD Remux 1080p] MVO [HDrezka Studio] bober100 Скачать
1 | 0
T Фильмы [HD 720p, 1080p] (Хороший звук DUB, MVO) [ 9.35 GB ] Семья по-быстрому / Instant Family [2018 BDRip 1080p] MVO [HDrezka Studio] bober100 Скачать
1 | 0

28-11-2019 20:33  

Отключить всю рекламу на сайте

    Дорогой пользователь! Огромная просьба, поблагодарите релизера, оцените раздачу и оставьте свои комментарий, если Вы скачали Семья по-быстрому через торрент бесплатно! Внесите свою лепту в развитие PiratBit!
    Комментировать посты могут только пользователи прошедшие не сложную регистрацию
    Показать сообщения:    

    Семья по-быстрому через торрент
    Скачать бесплатно Семья по-быстрому
    Семья по-быстрому скачать торрент
    Семья по-быстрому смотреть онлайн
    Cкачать фильм Семья по-быстрому бесплатно
    Семья по-быстрому скачать торрент в хорошем качестве
    Семья по-быстрому смотреть онлайн бесплатно в хорошем качестве


    Вы не можете начинать темы
    Вы не можете отвечать на сообщения
    Вы не можете редактировать свои сообщения
    Вы не можете удалять свои сообщения
    Вы не можете голосовать в опросах
    Вы не можете прикреплять файлы к сообщениям
    Вы можете скачивать файлы