Лицензия

MVO

1

1 сезон

Лицензия

Лицензия

13

MVO

1 сезон

Deluxe Edition

pack

Рекомендуем

30

Repack

ВАЖНО

ВАЖНО

Ghostwire

RePack

jed

RePack

fifa19

RePack

RDR2

RePack

NEED FOR SPEED™ PAYBACK

RePack

Кинопоиск HD

 Острые козырьки 6 сезон

6 сезон

FAR CRY 6

RePack

Лицензия

MVO

1

1 сезон

1 сезон

Лицензия

  

Игра престолов / Game of Thrones / Сезон: 6 / Серии: 1-10 из 10 (Алан Тейлор, Даниэль Минахан, Дэвид Наттер) [2016, США, Фэнтези, драма, приключения, экранизация, BDRip 1080p] MVO (LostFilm) + DUB (Amedia-Kravec)

Игра престолов через торрент piratbit.org

Размер: 45.78 GB | Добавлен: 3 года 7 мес. назад | Торрент скачан:188 раз
Смотреть онлайн Игра престолов | Скачать   

23-08-2017 12:45 Игра престолов Скачать торрент  

Игра престолов | Game of Thrones • Год выпуска: 2016
• Страна: США
• Жанр: Фэнтези, драма, приключения, экранизация
• Продолжительность: ~ 00:55:00
• Перевод: Профессиональный (многоголосый закадровый) | LostFilm
• Перевод: Профессиональный (дублированный) | Amedia-Kravec

• Режиссёр: Алан Тейлор, Даниэль Минахан, Дэвид Наттер, Брайан Кирк, Тимоти Ван Паттен, Дэвид Петрарка

• В ролях:

Лена Хиди, Питер Динклэйдж, Мишель Фэйрли, Эмилия Кларк, Кит Харингтон, Николай Костер-Валдау, Иэн Глен, Эйден Гиллен, Элфи Оуэн-Аллен, Мэйси Уильямс, Софи Тернер, Сибель Кекилли, Джеймс Космо, Стивен Диллэйн, Гетин Энтони, Гвендолин Кристи, Натали Дормер

• Описание:

«Игра престолов» новый сериал HBO, основанный на бестселлерах Джорджа Р.Р. Мартина. В мире, где лето и зимы длятся десятилетиями, на кону корона Вестероса. Предательство, похоть, интриги и сверхъестественные силы сотрясают все четыре стороны Королевства — от плетущего интриги юга, диких восточных земель, до замерзшего севера и древней Стены, что защищает королевство от тьмы за нею. Короли и королевы, рыцари и мятежники, лжецы и благородные люди борются за Влacть в кровавом сражении за Железный Трон.


rating

• Качество: BDRip 1080p
• Формат: MKV
• Видео: 1920x1080 (16:9) | X264/MPEG4-AVC | ~10000 kbps | 23.976 fps
• Аудио 1: AC3 | 48 KHz | 5.1 (Front: L С R Side: L R) + LFE | ~640 kbps [LostFilm]
• Аудио 2: AC3 | 48 KHz | 5.1 (Front: L С R Side: L R) + LFE | ~448 kbps [Amedia]
• Аудио 3: AC3 | 48 KHz | 5.1 (Front: L С R Side: L R) + LFE | ~640 kbps [Original]
• Субтитры: Русские форс. и полные (7kingdoms), английские форс. и полные
• Реклама: отсутствует
● Работа с видео, звуком, субитрами qqss44
● дорожка Лостфильм получена путем наложени выделенных голосов на центр декодированного DTS (дотракийский и валирийский - озвучены, форс. сабы не нужны)
● дорожка дубляжа взята с Blu-ray CEE без изменений (дотракийский и валирийский - не озвучены, форс. сабы нужны)
● Все субтитры вложены в контейнер в формате srt
● Отдельными файлами продублированы рус. форс. сабы (стилизованные, формат ass), для тех у кого техника вшитые не видит или проблемы с форматом ass
Общее
Уникальный идентификатор                 : 175217405930436939648104109918053449033 (0x83D1A5173E8354EE803BE7ECC92BBD49)
Формат                                   : Matroska
Версия формата                           : Version 2
Размер файла                             : 4,27 Гбайт
Продолжительность                        : 52 м.
Общий поток                              : 11,7 Мбит/сек
Название фильма                          : GOT.S06E03.BDRip.1080p.(qqss44)
Дата кодирования                         : UTC 2016-12-19 18:04:14
Программа кодирования                    : mkvmerge v7.9.0 ('Birds') 64bit
Библиотека кодирования                   : libebml v1.3.1 + libmatroska v1.4.2

Видео
Идентификатор                            : 1
Формат                                   : AVC
Формат/Информация                        : Advanced Video Codec
Профиль формата                          : High@L4.1
Параметр CABAC формата                   : Да
Параметр ReFrames формата                : 4 кадра
Идентификатор кодека                     : V_MPEG4/ISO/AVC
Продолжительность                        : 52 м.
Битрейт                                  : 10000 Кбит/сек
Ширина                                   : 1920 пикселей
Высота                                   : 1080 пикселей
Соотношение сторон                       : 16:9
Режим частоты кадров                     : Постоянный
Частота кадров                           : 23,976 (24000/1001) кадра/сек
Цветовое пространство                    : YUV
Субдискретизация насыщенности            : 4:2:0
Битовая глубина                          : 8 бит
Тип развёртки                            : Прогрессивная
Бит/(Пиксели*Кадры)                      : 0.201
Размер потока                            : 3,64 Гбайт (85%)
Заголовок                                : GOT.S06E03.BDRip.1080p.(qqss44)
Библиотека кодирования                   : x264 core 148 r2744kMod b97ae06
Настройки программы                      : cabac=1 / ref=4 / deblock=1:-3:-3 / analyse=0x3:0x133 / me=umh / subme=11 / psy=1 / fade_compensate=0.00 / psy_rd=1.00:0.00 / mixed_ref=1 / me_range=32 / chroma_me=1 / trellis=2 / 8x8dct=1 / cqm=0 / deadzone=21,11 / fast_pskip=0 / chroma_qp_offset=-2 / threads=12 / lookahead_threads=2 / sliced_threads=0 / nr=0 / decimate=0 / interlaced=0 / bluray_compat=0 / constrained_intra=0 / bframes=9 / b_pyramid=2 / b_adapt=2 / b_bias=0 / direct=3 / weightb=1 / open_gop=0 / weightp=2 / keyint=240 / keyint_min=23 / scenecut=40 / intra_refresh=0 / rc=2pass / mbtree=0 / bitrate=10000 / ratetol=1.0 / qcomp=0.70 / qpmin=0 / qpmax=69 / qpstep=4 / cplxblur=20.0 / qblur=0.5 / ip_ratio=1.40 / pb_ratio=1.30 / aq=3:0.80
Язык                                     : English
Default                                  : Да
Forced                                   : Нет

Аудио #1
Идентификатор                            : 2
Формат                                   : AC-3
Формат/Информация                        : Audio Coding 3
Расширение режима                        : CM (complete main)
Параметр Endianness формата              : Big
Идентификатор кодека                     : A_AC3
Продолжительность                        : 52 м.
Вид битрейта                             : Постоянный
Битрейт                                  : 640 Кбит/сек
Каналы                                   : 6 каналов
Расположение каналов                     : Front: L C R, Side: L R, LFE
Частота                                  : 48,0 КГц
Частота кадров                           : 31,250 кадров/сек (1536 spf)
Метод сжатия                             : С потерями
Размер потока                            : 239 Мбайт (5%)
Заголовок                                : LostFilm | DD5.1 @ 640 kbps
Язык                                     : Russian
Default                                  : Да
Forced                                   : Нет

Аудио #2
Идентификатор                            : 3
Формат                                   : AC-3
Формат/Информация                        : Audio Coding 3
Расширение режима                        : CM (complete main)
Параметр Endianness формата              : Big
Идентификатор кодека                     : A_AC3
Продолжительность                        : 52 м.
Вид битрейта                             : Постоянный
Битрейт                                  : 448 Кбит/сек
Каналы                                   : 6 каналов
Расположение каналов                     : Front: L C R, Side: L R, LFE
Частота                                  : 48,0 КГц
Частота кадров                           : 31,250 кадров/сек (1536 spf)
Метод сжатия                             : С потерями
Размер потока                            : 167 Мбайт (4%)
Заголовок                                : DUB | DD5.1 @ 448 kbps
Язык                                     : Russian
Default                                  : Нет
Forced                                   : Нет

Аудио #3
Идентификатор                            : 4
Формат                                   : AC-3
Формат/Информация                        : Audio Coding 3
Расширение режима                        : CM (complete main)
Параметр Endianness формата              : Big
Идентификатор кодека                     : A_AC3
Продолжительность                        : 52 м.
Вид битрейта                             : Постоянный
Битрейт                                  : 640 Кбит/сек
Каналы                                   : 6 каналов
Расположение каналов                     : Front: L C R, Side: L R, LFE
Частота                                  : 48,0 КГц
Частота кадров                           : 31,250 кадров/сек (1536 spf)
Метод сжатия                             : С потерями
Размер потока                            : 239 Мбайт (5%)
Заголовок                                : Original | DD5.1 @ 640 kbps
Язык                                     : English
Default                                  : Нет
Forced                                   : Нет

Текст #1
Идентификатор                            : 5
Формат                                   : UTF-8
Идентификатор кодека                     : S_TEXT/UTF8
Идентификатор кодека/Информация          : UTF-8 Plain Text
Продолжительность                        : 3 м. 21 с.
Битрейт                                  : 79 бит/сек
Count of elements                        : 37
Размер потока                            : 1,95 Кбайт (0%)
Заголовок                                : FORCED
Язык                                     : Russian
Default                                  : Нет
Forced                                   : Нет

Текст #2
Идентификатор                            : 6
Формат                                   : UTF-8
Идентификатор кодека                     : S_TEXT/UTF8
Идентификатор кодека/Информация          : UTF-8 Plain Text
Продолжительность                        : 49 м.
Битрейт                                  : 85 бит/сек
Count of elements                        : 601
Размер потока                            : 30,6 Кбайт (0%)
Заголовок                                : FULL
Язык                                     : Russian
Default                                  : Нет
Forced                                   : Нет

Текст #3
Идентификатор                            : 7
Формат                                   : UTF-8
Идентификатор кодека                     : S_TEXT/UTF8
Идентификатор кодека/Информация          : UTF-8 Plain Text
Продолжительность                        : 3 м. 21 с.
Битрейт                                  : 50 бит/сек
Count of elements                        : 37
Размер потока                            : 1,23 Кбайт (0%)
Заголовок                                : FORCED
Язык                                     : English
Default                                  : Нет
Forced                                   : Нет

Текст #4
Идентификатор                            : 8
Формат                                   : UTF-8
Идентификатор кодека                     : S_TEXT/UTF8
Идентификатор кодека/Информация          : UTF-8 Plain Text
Продолжительность                        : 47 м.
Битрейт                                  : 50 бит/сек
Count of elements                        : 563
Размер потока                            : 17,7 Кбайт (0%)
Заголовок                                : FULL
Язык                                     : English
Default                                  : Нет
Forced                                   : Нет

Меню
00:00:00.000                             : en:00:00:00.000
00:01:57.117                             : en:00:01:57.117
00:11:40.825                             : en:00:11:40.825
00:18:13.259                             : en:00:18:13.259
00:29:01.615                             : en:00:29:01.615
00:37:57.025                             : en:00:37:57.025
00:46:25.199                             : en:00:46:25.199
00:50:53.050                             : en:00:50:53.050
скриншот   скриншот   скриншот   скриншот  

скриншот   скриншот   скриншот   скриншот  
06х01
x264 [info]: frame I:536 Avg QP:14.61 size:224458
x264 [info]: frame P:21007 Avg QP:17.05 size: 94382
x264 [info]: frame B:50485 Avg QP:18.55 size: 32688

06х02
x264 [info]: frame I:582 Avg QP:12.64 size:190730
x264 [info]: frame P:21975 Avg QP:14.93 size: 94159
x264 [info]: frame B:54705 Avg QP:16.50 size: 33732

06х03
x264 [info]: frame I:610 Avg QP:12.99 size:179624
x264 [info]: frame P:23473 Avg QP:15.33 size: 92999
x264 [info]: frame B:51016 Avg QP:16.45 size: 31726

06х04
x264 [info]: frame I:696 Avg QP:13.65 size:190783
x264 [info]: frame P:24688 Avg QP:15.81 size: 91566
x264 [info]: frame B:59051 Avg QP:17.04 size: 33987

06х05
x264 [info]: frame I:672 Avg QP:13.75 size:200984
x264 [info]: frame P:25634 Avg QP:16.02 size: 89281
x264 [info]: frame B:55407 Avg QP:17.58 size: 33117

06х06
x264 [info]: frame I:721 Avg QP:12.87 size:216516
x264 [info]: frame P:23936 Avg QP:14.71 size: 88955
x264 [info]: frame B:49371 Avg QP:16.08 size: 31838

06х07
x264 [info]: frame I:701 Avg QP:13.95 size:220152
x264 [info]: frame P:22259 Avg QP:16.34 size: 92068
x264 [info]: frame B:49468 Avg QP:17.69 size: 31766

06х08
x264 [info]: frame I:719 Avg QP:13.15 size:195210
x264 [info]: frame P:25995 Avg QP:15.09 size: 89273
x264 [info]: frame B:57221 Avg QP:16.53 size: 33410

06х09
x264 [info]: frame I:668 Avg QP:13.42 size:184780
x264 [info]: frame P:31159 Avg QP:15.84 size: 81536
x264 [info]: frame B:53470 Avg QP:17.44 size: 33316

06х10
x264 [info]: frame I:687 Avg QP:13.25 size:202870
x264 [info]: frame P:26602 Avg QP:15.86 size: 91174
x264 [info]: frame B:70567 Avg QP:17.27 size: 35895



Скачать Игра престолов через торрент http://i80.fastpic.ru/big/2016/0425/64/ea89389744870b64e9c389b970d0e464.png Скачать, смотреть онлайн Игра престолов бесплантно в хорошем качестве Описание: «Игра престолов» новый сериал HBO, основанный на бестселлерах Джорджа Р.Р. Мартина. В мире, где лето и зимы длятся десятилетиями, ... 10 10 12
Info! Золотая раздача, скачанное не засчитывается.
Торрент: Зарегистрирован [2019-02-26 17:55] · скачан: 188 раз
Статус: √ проверено
Размер: 45.78 GB
Как cкачать? Как скачать Игра престолов через торрент | UTorrent

% Раздел Тема Автор DL S | L
Игра престолов [ 109.58 GB ] Игра престолов / Game of Thrones / Сезон: 1-8 из 8 / Серии: 1-73 из 73 | DUB | DLRip 1080p sheker187 Скачать
3 | 4
Игра престолов [ 322.59 GB ] Игра престолов / Game of Thrones / Сезон: 1-8 из 8 / Серии: 1-73 из 73 | LostFilm | DLRip 1080p sheker187 Скачать
3 | 4
Игра престолов [ 297.23 GB ] Игра престолов / Game of Thrones / Сезон: 1-7 из 7 / Серии: 1-67 из 67 | LostFilm | 1080p sheker187 Скачать
1 | 0
Игра престолов [ 7.26 GB ] Игра Престолов / Game of Thrones / Сезон: 8 / Серии: 1-6 из 6 | Лицензия | BDRip от Twi7ter Twi7ter Скачать
14 | 3
Игра престолов [ 25.89 GB ] Игра престолов / Game of Thrones / Сезон: 8 / Серии: 1-6 из 6 | Amedia | 1080p bober100 Скачать
1 | 0
Игра престолов [ 13.35 GB ] Игра престолов / Game of Thrones / Сезон: 8 / Серии: 1-6 из 6 | Amedia 5.1 | 720p bober100 Скачать
1 | 0
Игра престолов [ 7.41 GB ] Игра Престолов / Game of Thrones / Сезон: 8 / Серии: 1-6 из 6 | Дубляж - | DLRip от Twi7ter Twi7ter Скачать
1 | 0

28-11-2019 20:33  

Отключить вcю реклaмy на сайте

    Дорогой пользователь! Огромная просьба, поблагодарите релизера, оцените раздачу и оставьте свои комментарий, если Вы скачали Игра престолов через торрент бесплатно!!
    Комментировать посты могут только пользователи прошедшие не сложную регистрацию
    Показать сообщения:    


    Игра престолов через торрент
    Скачать бесплатно Игра престолов
    Игра престолов скачать торрент
    Игра престолов смотреть онлайн
    Cкачать фильм Игра престолов бесплатно
    Игра престолов скачать торрент в хорошем качестве
    Игра престолов смотреть онлайн бесплатно в хорошем качестве
    Вы не можете начинать темы
    Вы не можете отвечать на сообщения
    Вы не можете редактировать свои сообщения
    Вы не можете удалять свои сообщения
    Вы не можете голосовать в опросах
    Вы не можете прикреплять файлы к сообщениям
    Вы можете скачивать файлы