Наша группа ВК в очередной раз забанена мы уходим в Телеграм, присоединяйтесь!!!

Лицензия

30

iTunes

Как приручить дракона 3

iTunes

1

1 сезон

Чернобыль

iTunes

Снегоуборщик

iTunes

Закатать в асфальт

8 сезон

Игра престолов

iTunes

Ральф против интернета Хит недели

ИГРА 18+

pack

ВАЖНО

!!Акция!!

Alien_RageХит недели

RePack

Resident Evil 21
pack

RePack

Metro:Exodus

!!Акция!!

Alien_Rage

RePack

fifa19

RePack

Assassins Creed: Odyssey

RePack

NEED FOR SPEED™ PAYBACK

3 сезон

9 сезон

Бесстыжие 9 сезон

Все сериалы

все сериалы на PB.wtf

RePack

FAR CRY 5
Ребята, катастрофически не хватает 2730р. для оплаты серверов за АПРЕЛЬ (всвязи с блокировками трафик упал в 3 раза), 1-2р., выручайте.
  

Доказанная невиновность / Proven Innocent / Сезон: 1 / Серии: 1-13 из 13 (Патрисия Ригген, Анна Мастро) [2019, драма, WEB-DL 1080p] [MVO] (TVShows) piratbit.org

Доказанная невиновность через торрент piratbit.org

Размер: 42.18 GB | Добавлен: 6 д. назад | Торрент скачан:2 раза
Скачать  

26-02-2019 20:23 Доказанная невиновность Скачать торрент  


Доказанная невиновность / Proven Innocent

Год выпуска: 2019
Страна: США
Жанр: драма
Продолжительность: ~00:46:00
Перевод: Профессиональный (многоголосый закадровый) *TVShows*
Режиссёр: Патрисия Ригген, Анна Мастро

В ролях: Клэр О'Коннор, Гарри Джарвис, Кэйтлин Менер, Лори Холден, Катрин Лидстоун, Бен Мартен, Кэйси Таттон, Илэйн Хендрикс, Надя Симмс, Бретт Райс и другие.
Описание: Мадлен Скотт рано испытала на себе ошибки правосудия: ее с братом несправедливо осудили за убийство. Уже повзрослевшая героиня решает бороться с подобным правовым беспределом и отстаивает сторону тех людей, чьи дела вызывают сомнения. Естественно, у Мадлен появляются противники, самый главный из которых — прокурор, когда-то посадивший ее за решетку.

скриншот  

Качество: WEB-DL 1080p
Формат: MKV
Видео: AVC/H.264, 1920x1080 (16:9), ~9 400 kbps, 23.976 fps
Аудио # Rus: AC3, 48 kHz, 6 ch, 384 kbps
Аудио # Eng: E-AC3, 48 kHz, 6 ch, 640 kbps
Субтитры: английские
General
Unique ID : 39342090467573858925296552862389839675 (0x1D9902D197B460271E2D3FB4E173273B)
Complete name : E:\Proven.Innocent.S01.1080p.TVShows\Proven.Innocent.S01E01.1080p.TVShows.mkv
Format : Matroska
Format version : Version 4 / Version 2
File size : 3.43 GiB
Duration : 46 min 22 s
Overall bit rate : 10.6 Mb/s
Encoded date : UTC 2019-02-25 07:32:18
Writing application : mkvmerge v31.0.0 ('Dolores In A Shoestand') 64-bit
Writing library : libebml v1.3.6 + libmatroska v1.4.9

Video
ID : 1
Format : AVC
Format/Info : Advanced Video Codec
Format profile : High@L4
Format settings : CABAC / 4 Ref Frames
Format settings, CABAC : Yes
Format settings, RefFrames : 4 frames
Codec ID : V_MPEG4/ISO/AVC
Duration : 46 min 22 s
Bit rate mode : Constant
Bit rate : 9 363 kb/s
Nominal bit rate : 10 000 kb/s
Width : 1 920 pixels
Height : 1 080 pixels
Display aspect ratio : 16:9
Frame rate mode : Constant
Frame rate : 23.976 (24000/1001) FPS
Color space : YUV
Chroma subsampling : 4:2:0
Bit depth : 8 bits
Scan type : Progressive
Bits/(Pixel*Frame) : 0.188
Stream size : 3.03 GiB (88%)
Default : Yes
Forced : No
Color range : Limited
Color primaries : BT.709
Transfer characteristics : BT.709
Matrix coefficients : BT.709

Audio #1
ID : 2
Format : AC-3
Format/Info : Audio Coding 3
Format settings, Endianness : Big
Codec ID : A_AC3
Duration : 46 min 22 s
Bit rate mode : Constant
Bit rate : 384 kb/s
Channel(s) : 6 channels
Channel positions : Front: L C R, Side: L R, LFE
Sampling rate : 48.0 kHz
Frame rate : 31.250 FPS (1536 SPF)
Bit depth : 16 bits
Compression mode : Lossy
Stream size : 127 MiB (4%)
Title : TVShows
Language : Russian
Service kind : Complete Main
Default : Yes
Forced : Yes

Audio #2
ID : 3
Format : E-AC-3
Format/Info : Enhanced Audio Coding 3
Format settings, Endianness : Big
Codec ID : A_EAC3
Duration : 46 min 22 s
Bit rate mode : Constant
Bit rate : 640 kb/s
Channel(s) : 6 channels
Channel positions : Front: L C R, Side: L R, LFE
Sampling rate : 48.0 kHz
Frame rate : 187.500 FPS (256 SPF)
Compression mode : Lossy
Stream size : 212 MiB (6%)
Title : Original
Language : English
Service kind : Complete Main
Default : No
Forced : No

Text
ID : 4
Format : UTF-8
Codec ID : S_TEXT/UTF8
Codec ID/Info : UTF-8 Plain Text
Title : English
Language : English
Default : No
Forced : No
скриншот  скриншот  скриншот  
Внимание! Раздача ведётся путём добавления новых серий; при каждом добавлении создаётся новый торрент. Чтобы начать докачку новой серии, пользователям необходимо сделать следующее:
(1) остановить скачивание,
(2) удалить старый торрент у себя из клиента (старые серии удалять не надо),
(3) скачать новый торрент и запустить его у себя в клиенте вместо старого, при этом указать клиенту путь в старую папку куда и должно происходить скачивание новых серий.

Ваш клиент при этом должен произвести хеширование (проверку) старой папки (если не производит сам - помогите ему сделать это), и будет докачивать только те серии которых у вас ещё нет. Старые серии при этом не удаляются, а продолжают раздаваться!

Eсли вы уже удалили старые серии, то предотвратить повторную закачку старых серий можно, отжав галочку в соответствующих местах при запуске нового торрента. По возможности, желательно не удалять старые серии как можно дольше чтобы релизёр не столько продолжал раздавать старые серии, а смог сконцентрироваться на новых.
piratbit.org



Скачать Доказанная невиновность через торрент https://i109.fastpic.ru/big/2019/0217/08/72aefee67165b67fd1a568791ad78608.jpg Скачать фильм Доказанная невиновность через торрент бесплантно в хорошем качестве Описание: Мадлен Скотт рано испытала на себе ошибки правосудия: ее с братом несправедливо осудили за убийство. Уже повзрослевшая героиня ... 3 10 1
Торрент: Зарегистрирован [2019-05-16 16:56] · скачан: 2 раз
Статус: √ проверено
Размер: 42.18 GB
Как cкачать? Как скачать Доказанная невиновность через торрент | qTorrent

% Раздел Тема Автор DL S | L
Зарубежные сериалы [ 6.42 GB ] Доказанная невиновность / Proven Innocent / Сезон: 1 / Серии: 1-12 из 13 [2019 WEB-DLRip] MVO [Jaskier] bober100 Скачать
1 | 0


>> Регистрируемся здесь <<






Отзывы и комментарии о схеме читаем и пишем здесь: ---> Отзывы и комментарии о схеме

Новые благодарочки в телеграм довольных пользователей:
скриншот   скриншот   скриншот   скриншот   скриншот
    Дорогой пользователь! Огромная просьба, поблагодарите релизера, оцените раздачу и оставьте свои комментарий, если Вы скачали Доказанная невиновность через торрент бесплатно! Внесите свою лепту в развитие PiratBit!
    Комментировать посты могут только пользователи прошедшие не сложную регистрацию
    Показать сообщения:    

    Доказанная невиновность через торрент
    Скачать бесплатно Доказанная невиновность
    Доказанная невиновность скачать торрент
    Доказанная невиновность смотреть онлайн
    Cкачать фильм Доказанная невиновность бесплатно
    Доказанная невиновность скачать торрент в хорошем качестве
    Доказанная невиновность смотреть онлайн бесплатно в хорошем качестве


    Вы не можете начинать темы
    Вы не можете отвечать на сообщения
    Вы не можете редактировать свои сообщения
    Вы не можете удалять свои сообщения
    Вы не можете голосовать в опросах
    Вы не можете прикреплять файлы к сообщениям
    Вы можете скачивать файлы