Всегда рабочее зеркало без VPN и Proxy просто перед .vidak.icu напиши любое слово или цифру, Пример http://z49o.vidak.icu

MVO

2 сезон

2 сезон

1

1 сезон

iTunes

2 сезон

13

1 сезон

Распродажа

pack

Рекомендуем

Пиратка

30

ВАЖНО

RePack

MK11

RePack

jed

RePack

fifa19

RePack

RDR2

RePack

NEED FOR SPEED™ PAYBACK

Кинопоиск HD

6 сезон

 Острые козырьки 6 сезон

Все сериалы

все сериалы на PB.wtf

RePack

FAR CRY 5

Anonymous, нам критически не хватает 5601 руб. на оплату серверов и переферии за Апрель, помоги нам пожалуйста, вся надежда только на тебя. В благодарность мы отключим тебе всю рекламу на сайте!

×
  
Magnet ссылка

Принц-дракон / The Dragon Prince / Сезон: 2 / Серии: 1-9 из 9 (Джастин Ричмонд) [2019, Мультсериал, фэнтези, WEB-DL 1080p] [DUB] (SDI Media) + [MVO] (AlexFilm) piratbit.org

Принц-дракон через торрент piratbit.org

Размер: 7.53 GB | Добавлен: 3 года 2 мес. назад | Торрент скачан:109 раз
Смотреть онлайн Принц-дракон | Скачать    Ребята, помогите собрать деньги на оплату серверов!!!

28-02-2019 17:05 Принц-дракон Скачать торрент  

Принц-дракон / The Dragon Prince
Страна: США
Жанр: Мультсериал, фантастика
Продолжительность серии: 00:24:00
Год выпуска: 2019
Перевод 1: Профессиональный (дублированный) SDI Media
Перевод 2: Профессиональный (многоголосый закадровый) - AlexFilm
Русские субтитры: есть

Режиссёр: Джастин Ричмонд
Роли озвучивали: Джек Де Сена, Паула Берроу , Саша Роджен, Ракель Бельмонте, Джейсон Симпсон, Джесси Инокалла, Джонатан Холмс, Люк Родерик, Адриан Петрив,, Элли Кинг, Омари Ньютон

Описание: В центре сюжета мультсериала находятся два прекрасных принца и маленькая эльфийка-убийца. Вместе они отправляются в невероятное приключение в свой фэнтезийный мир. Уже несколько столетий подряд мир разделился на запад и восток: в первой части располагаются магические земли, а во второй расположены пять королевств. Между ними простирается граница, которую все время охраняет величественный Король Драконов. Но однажды люди решаются на опрометчивый поступок и, применив черную магию, убивают не только Короля Драконов, но и его наследника, который вот-вот должен был вылупиться из яйца. Теперь спасти весь мир под силу только главным героям.



Качество: WEB-DL 1080p
Формат: MKV
Видео: AVC, 1920x1080, 23.976 fps, ~4000 kbps
Аудио 1: 48 kHz, AC3, 6 ch, 384 kbps | Rus - SDI Media
Аудио 2: 48 kHz, AC3, 6 ch, 384 kbps | Rus - AlexFilm
Аудио 3: 48 kHz, EAC3, 6 ch, 640 kbps | Eng - Original (в 1 серии 48 kHz, EAC3, 6 ch, 448 kbps)
Субтитры: Русские (Forced, Full), английские (SDH) и другие
Спасибо:
Профессиональный дублированный перевод: SDI Media - работа со звуком Zgurvas
Перевод: Надежда Гайдаш
Роли озвучивали: Даниил Эльдаров, Андрей Бархударов, Анастасия Лапина, Прохор Чеховской, Иван Калинин, Фёдор Парамонов, Рамиля Искандер, Татьяна Шитова, Сергей Пономарёв

Профессиональный многоголосый закадровый: AlexFilm - очистка от рекламы Atla22
Перевод: Анна Якименко
Роли озвучивали: Екатерина Муравицкая, Алёна Левичева, Леонид Дмитриев, Кирилл Патрино, Константин Федосеев, Михаил Федосеев

Сбор материала и оформление релиза: Zgurvas@EniaHD
01. Тайна и искра | A Secret and a Spark
02. Ложь полумесяца | Half Moon Lies
03. Дым и зеркала | Smoke and Mirrors
04. Путь беспощадного | Voyage of the Ruthless
05. Сломанная печать | Breaking the Seal
06. Сердце титана | Heart of a Titan
07. Пламя и ярость | Fire and fury
08. Книга судьбы | The Book of Destiny
09. Дыши | Breathe
Полное имя                               : D:\RELEASE\The.Dragon.Prince.S02.1080p.WEB-DL.2xRus.Eng.EniaHD\The.Dragon.Prince.S02E04.Voyage.of.the.Ruthless.1080p.WEB-DL.2xRus.Eng.EniaHD.mkv
Формат : Matroska
Версия формата : Version 4
Размер файла : 1,02 Гбайт
Продолжительность : 26 м. 42 с.
Режим общего битрейта : Переменный
Общий поток : 5459 Кбит/сек
Название фильма : Путь беспощадного
Дата кодирования : UTC 2019-02-28 15:30:15
Программа кодирования : mkvmerge v30.1.0 ('Forever And More') 32-bit
Библиотека кодирования : libebml v1.3.6 + libmatroska v1.4.9
Обложка : Yes
Attachments : cover.the.dragon.prince.s02.jpg

Видео
Идентификатор : 1
Формат : AVC
Формат/Информация : Advanced Video Codec
Профиль формата : Main@L4
Настройки формата : CABAC / 3 Ref Frames
Параметр CABAC формата : Да
Параметр RefFrames формата : 3 кадра
Идентификатор кодека : V_MPEG4/ISO/AVC
Продолжительность : 26 м. 42 с.
Вид битрейта : Переменный
Битрейт : 4220 Кбит/сек
Максимальный битрейт : 6330 Кбит/сек
Ширина : 1920 пикселей
Высота : 1080 пикселей
Соотношение сторон : 16:9
Режим частоты кадров : Постоянный
Частота кадров : 23,976 (24000/1001) кадра/сек
Цветовое пространство : YUV
Субдискретизация насыщенности : 4:2:0
Битовая глубина : 8 бит
Тип развёртки : Прогрессивная
Бит/(Пиксели*Кадры) : 0.085
Размер потока : 773 Мбайт (74%)
Заголовок : Release by Zgurvas for EniaHD
Библиотека кодирования : x264 core 148 r2715 7e75228
Настройки программы : cabac=1 / ref=3 / deblock=1:0:0 / analyse=0x1:0x111 / me=umh / subme=10 / psy=1 / psy_rd=1.00:0.00 / mixed_ref=1 / me_range=24 / chroma_me=1 / trellis=2 / 8x8dct=0 / cqm=0 / deadzone=21,11 / fast_pskip=1 / chroma_qp_offset=-2 / threads=8 / lookahead_threads=1 / sliced_threads=0 / nr=0 / decimate=1 / interlaced=0 / bluray_compat=0 / stitchable=1 / constrained_intra=0 / bframes=2 / b_pyramid=0 / b_adapt=2 / b_bias=0 / direct=3 / weightb=1 / open_gop=0 / weightp=2 / keyint=48 / keyint_min=25 / scenecut=0 / intra_refresh=0 / rc_lookahead=48 / rc=2pass / mbtree=1 / bitrate=4220 / ratetol=1.0 / qcomp=0.50 / qpmin=6 / qpmax=51 / qpstep=4 / cplxblur=20.0 / qblur=0.5 / vbv_maxrate=6330 / vbv_bufsize=8440 / nal_hrd=vbr / filler=0 / ip_ratio=1.40 / aq=1:1.00
Язык : English
Default : Да
Forced : Нет

Аудио #1
Идентификатор : 2
Формат : AC-3
Формат/Информация : Audio Coding 3
Коммерческое название : Dolby Digital
Идентификатор кодека : A_AC3
Продолжительность : 26 м. 42 с.
Вид битрейта : Постоянный
Битрейт : 384 Кбит/сек
Каналы : 6 каналов
Channel layout : L R C LFE Ls Rs
Частота : 48,0 КГц
Частота кадров : 31,250 кадров/сек (1536 SPF)
Битовая глубина : 16 бит
Метод сжатия : С потерями
Размер потока : 73,4 Мбайт (7%)
Заголовок : AC3 5.1 @ 384 kbps - DUB, SDI Media
Язык : Russian
ServiceKind/String : Complete Main
Default : Да
Forced : Нет

Аудио #2
Идентификатор : 3
Формат : AC-3
Формат/Информация : Audio Coding 3
Коммерческое название : Dolby Digital
Идентификатор кодека : A_AC3
Продолжительность : 26 м. 42 с.
Вид битрейта : Постоянный
Битрейт : 384 Кбит/сек
Каналы : 6 каналов
Channel layout : L R C LFE Ls Rs
Частота : 48,0 КГц
Частота кадров : 31,250 кадров/сек (1536 SPF)
Битовая глубина : 16 бит
Метод сжатия : С потерями
Размер потока : 73,4 Мбайт (7%)
Заголовок : AC3 5.1 @ 384 kbps - MVO, AlexFilm
Язык : Russian
ServiceKind/String : Complete Main
Default : Нет
Forced : Нет

Аудио #3
Идентификатор : 4
Формат : E-AC-3
Формат/Информация : Enhanced AC-3
Коммерческое название : Dolby Digital Plus
Идентификатор кодека : A_EAC3
Продолжительность : 26 м. 42 с.
Вид битрейта : Постоянный
Битрейт : 640 Кбит/сек
Каналы : 6 каналов
Channel layout : L R C LFE Ls Rs
Частота : 48,0 КГц
Частота кадров : 31,250 кадров/сек (1536 SPF)
Метод сжатия : С потерями
Размер потока : 122 Мбайт (12%)
Заголовок : E-AC3 5.1 @ 640 kbps - Original
Язык : English
ServiceKind/String : Complete Main
Default : Нет
Forced : Нет

Текст #1
Идентификатор : 5
Формат : UTF-8
Идентификатор кодека : S_TEXT/UTF8
Идентификатор кодека/Информация : UTF-8 Plain Text
Продолжительность : 25 м. 15 с.
Битрейт : 0 бит/сек
ElementCount : 3
Размер потока : 163 байт (0%)
Заголовок : Forced
Язык : Russian
Default : Да
Forced : Да

Текст #2
Идентификатор : 6
Формат : UTF-8
Идентификатор кодека : S_TEXT/UTF8
Идентификатор кодека/Информация : UTF-8 Plain Text
Продолжительность : 25 м. 15 с.
Битрейт : 64 бит/сек
ElementCount : 268
Размер потока : 11,9 Кбайт (0%)
Заголовок : Full
Язык : Russian
Default : Нет
Forced : Нет

Текст #3
Идентификатор : 7
Формат : UTF-8
Идентификатор кодека : S_TEXT/UTF8
Идентификатор кодека/Информация : UTF-8 Plain Text
Продолжительность : 23 м. 54 с.
Битрейт : 57 бит/сек
ElementCount : 292
Размер потока : 10,0 Кбайт (0%)
Заголовок : Full SDH
Язык : English
Default : Нет
Forced : Нет

Текст #4
Идентификатор : 8
Формат : UTF-8
Идентификатор кодека : S_TEXT/UTF8
Идентификатор кодека/Информация : UTF-8 Plain Text
Продолжительность : 25 м. 15 с.
Битрейт : 41 бит/сек
ElementCount : 265
Размер потока : 7,74 Кбайт (0%)
Заголовок : Brazilian
Язык : Portuguese
Default : Нет
Forced : Нет

Текст #5
Идентификатор : 9
Формат : UTF-8
Идентификатор кодека : S_TEXT/UTF8
Идентификатор кодека/Информация : UTF-8 Plain Text
Продолжительность : 25 м. 15 с.
Битрейт : 38 бит/сек
ElementCount : 260
Размер потока : 7,12 Кбайт (0%)
Язык : Danish
Default : Нет
Forced : Нет

Текст #6
Идентификатор : 10
Формат : UTF-8
Идентификатор кодека : S_TEXT/UTF8
Идентификатор кодека/Информация : UTF-8 Plain Text
Продолжительность : 25 м. 15 с.
Битрейт : 37 бит/сек
ElementCount : 215
Размер потока : 6,98 Кбайт (0%)
Язык : Dutch
Default : Нет
Forced : Нет

Текст #7
Идентификатор : 11
Формат : UTF-8
Идентификатор кодека : S_TEXT/UTF8
Идентификатор кодека/Информация : UTF-8 Plain Text
Продолжительность : 25 м. 15 с.
Битрейт : 40 бит/сек
ElementCount : 265
Размер потока : 7,53 Кбайт (0%)
Заголовок : European
Язык : Spanish
Default : Нет
Forced : Нет

Текст #8
Идентификатор : 12
Формат : UTF-8
Идентификатор кодека : S_TEXT/UTF8
Идентификатор кодека/Информация : UTF-8 Plain Text
Продолжительность : 25 м. 15 с.
Битрейт : 37 бит/сек
ElementCount : 201
Размер потока : 7,01 Кбайт (0%)
Язык : Finnish
Default : Нет
Forced : Нет

Текст #9
Идентификатор : 13
Формат : UTF-8
Идентификатор кодека : S_TEXT/UTF8
Идентификатор кодека/Информация : UTF-8 Plain Text
Продолжительность : 25 м. 15 с.
Битрейт : 47 бит/сек
ElementCount : 260
Размер потока : 8,76 Кбайт (0%)
Язык : French
Default : Нет
Forced : Нет

Текст #10
Идентификатор : 14
Формат : UTF-8
Идентификатор кодека : S_TEXT/UTF8
Идентификатор кодека/Информация : UTF-8 Plain Text
Продолжительность : 25 м. 15 с.
Битрейт : 43 бит/сек
ElementCount : 265
Размер потока : 8,06 Кбайт (0%)
Язык : German
Default : Нет
Forced : Нет

Текст #11
Идентификатор : 15
Формат : UTF-8
Идентификатор кодека : S_TEXT/UTF8
Идентификатор кодека/Информация : UTF-8 Plain Text
Продолжительность : 25 м. 15 с.
Битрейт : 72 бит/сек
ElementCount : 237
Размер потока : 13,5 Кбайт (0%)
Язык : Greek
Default : Нет
Forced : Нет

Текст #12
Идентификатор : 16
Формат : UTF-8
Идентификатор кодека : S_TEXT/UTF8
Идентификатор кодека/Информация : UTF-8 Plain Text
Продолжительность : 25 м. 15 с.
Битрейт : 40 бит/сек
ElementCount : 265
Размер потока : 7,56 Кбайт (0%)
Язык : Indonesian
Default : Нет
Forced : Нет

Текст #13
Идентификатор : 17
Формат : UTF-8
Идентификатор кодека : S_TEXT/UTF8
Идентификатор кодека/Информация : UTF-8 Plain Text
Продолжительность : 25 м. 15 с.
Битрейт : 36 бит/сек
ElementCount : 253
Размер потока : 6,75 Кбайт (0%)
Язык : Italian
Default : Нет
Forced : Нет

Текст #14
Идентификатор : 18
Формат : UTF-8
Идентификатор кодека : S_TEXT/UTF8
Идентификатор кодека/Информация : UTF-8 Plain Text
Продолжительность : 24 м. 34 с.
Битрейт : 43 бит/сек
ElementCount : 210
Размер потока : 7,82 Кбайт (0%)
Язык : Norwegian Bokmal
Default : Нет
Forced : Нет

Текст #15
Идентификатор : 19
Формат : UTF-8
Идентификатор кодека : S_TEXT/UTF8
Идентификатор кодека/Информация : UTF-8 Plain Text
Продолжительность : 25 м. 13 с.
Битрейт : 38 бит/сек
ElementCount : 252
Размер потока : 7,08 Кбайт (0%)
Язык : Polish
Default : Нет
Forced : Нет

Текст #16
Идентификатор : 20
Формат : UTF-8
Идентификатор кодека : S_TEXT/UTF8
Идентификатор кодека/Информация : UTF-8 Plain Text
Продолжительность : 25 м. 15 с.
Битрейт : 43 бит/сек
ElementCount : 230
Размер потока : 7,99 Кбайт (0%)
Язык : Portuguese
Default : Нет
Forced : Нет

Текст #17
Идентификатор : 21
Формат : UTF-8
Идентификатор кодека : S_TEXT/UTF8
Идентификатор кодека/Информация : UTF-8 Plain Text
Продолжительность : 25 м. 22 с.
Битрейт : 40 бит/сек
ElementCount : 253
Размер потока : 7,47 Кбайт (0%)
Язык : Spanish
Default : Нет
Forced : Нет

Текст #18
Идентификатор : 22
Формат : UTF-8
Идентификатор кодека : S_TEXT/UTF8
Идентификатор кодека/Информация : UTF-8 Plain Text
Продолжительность : 25 м. 15 с.
Битрейт : 40 бит/сек
ElementCount : 260
Размер потока : 7,52 Кбайт (0%)
Язык : Swedish
Default : Нет
Forced : Нет

Текст #19
Идентификатор : 23
Формат : UTF-8
Идентификатор кодека : S_TEXT/UTF8
Идентификатор кодека/Информация : UTF-8 Plain Text
Продолжительность : 25 м. 15 с.
Битрейт : 38 бит/сек
ElementCount : 262
Размер потока : 7,21 Кбайт (0%)
Язык : Turkish
Default : Нет
Forced : Нет
скриншот  скриншот  скриншот  
piratbit.org



Скачать Принц-дракон через торрент http://img10.lostpic.net/2019/02/17/77c03e8fbee2a57b273f6a932695a77c.png Скачать, смотреть онлайн Принц-дракон бесплантно в хорошем качестве Описание: В центре сюжета мультсериала находятся два прекрасных принца и маленькая эльфийка-убийца. Вместе они отправляются в невероятное ... 10 10 1
Торрент: Зарегистрирован [2019-02-28 17:05] · скачан: 109 раз
Статус: √ проверено
Размер: 7.53 GB
Как cкачать? Как скачать Принц-дракон через торрент | UTorrent

% Раздел Тема Автор DL S | L
Мультсериалы [ 354 MB ] Принц-дракон / The Dragon Prince / Сезон: 2 / Серии: 1- из 9 [2019 WEB-DLRip] MVO [AlexFilm] bober100 Скачать
1 | 0

28-11-2019 20:33  

Отключить всю рекламу на сайте

07-05-2022 08:18 Принц-дракон Скачать торрент  

Просто шикарно. Знать бы не знал, что такое существует. Если бы случайно не наткнулся. А третий сезон где?! Он же есть...а на сайте нетуpiratbit.org



    Дорогой пользователь! Огромная просьба, поблагодарите релизера, оцените раздачу и оставьте свои комментарий, если Вы скачали Принц-дракон через торрент бесплатно!
    Комментировать посты могут только пользователи прошедшие не сложную регистрацию
    Показать сообщения:    

    Принц-дракон через торрент
    Скачать бесплатно Принц-дракон
    Принц-дракон скачать торрент
    Принц-дракон смотреть онлайн
    Cкачать фильм Принц-дракон бесплатно
    Принц-дракон скачать торрент в хорошем качестве
    Принц-дракон смотреть онлайн бесплатно в хорошем качестве


    Вы не можете начинать темы
    Вы не можете отвечать на сообщения
    Вы не можете редактировать свои сообщения
    Вы не можете удалять свои сообщения
    Вы не можете голосовать в опросах
    Вы не можете прикреплять файлы к сообщениям
    Вы можете скачивать файлы