Достать ножи: Стеклянная луковица

MVO

Добыча

Дубляж

Уэнсдэй

1 сезон

Тор

Дубляж

13 клиническая

1 сезон

Жестокая ночь

MVO

Одни из нас

1 сезон

Deluxe

pack

Рекомендуем

30

Пиратка

ВАЖНО

ВАЖНО

Ghostwire

Пиратка

jed

RePack

nioh2

RePack

RDR2

RePack

NEED FOR SPEED™ PAYBACK

RePack

скачать торрент

Кинопоиск HD

Острые козырьки 6 сезон

6 сезон

FAR CRY 6

RePack

скачать торрент

Лицензия

скачать торрент

MVO

1

1 сезон

скачать торрент

1 сезон

скачать торрент

Лицензия

  

Девушка, которая застряла в паутине / The Girl in the Spider's Web (Федерико Альварес) [2018, триллер, драма, криминал, UHD BDRip 2160p] Дубляж (rus, ukr) [Лицензия]

Девушка, которая застряла в паутине через торрент piratbit.org

Размер: 10.49 GB | Добавлен: 3 года 10 мес. назад | Торрент скачан:46 раз
Смотреть онлайн | Скачать | Поддержите нас   

03-03-2019 14:26 Девушка, которая застряла в паутине Скачать торрент  

Девушка, которая застряла в паутине / The Girl in the Spider's Web
Год выпуска: 2018
Страна: Великобритания, Германия, Швеция, Канада, США
Жанр: триллер, драма, криминал
Продолжительность: 01:55:25
Перевод: Дублированный | Лицензия
Субтитры: Русские (Forced, full), украинские (Full), английские

Режиссер: Федерико Альварес

rating

В ролях:

Клер Фой (Lisbeth Salander), Сверрир Гуднасон (Mikael Blomkvist), Бо Гадсдон (Young Lisbeth Salander), Лакит Стэнфилд (Ed Needham), Сильвия Хукс (Camilla Salander), Карлотта фон Фалькенхайн (Young Camilla Salander), Стивен Мерчант (Frans Balder), Кристофер Конвери (August Balder), Клас Банг (Jan Holtser), Сюннёве Макоди Лунд (Gabriella Grane), Камерон Бриттон (Plague), Вики Крипс (Erika Berger)
Описание:

Хакер Лисбет Саландер и журналист Микаэль Блумквист оказываются втянуты в историю с участием шпионов, киберпреступников и коррумпированных чиновников.

Качество: UHD BDRip 2160p
Формат: MKV

Видео: HEVC HDR, 10200 Кбит/с, 3840x1608, 23.976 кадр/с, 10 бит
Аудио#1: 48 kHz, AC3, 5.1, 640 Kbps | Дублированный | RUS |
Аудио#2: 48 kHz, AC3, 2.0, 640 Kbps | Дублированный | UKR |
Аудио#3: 48 kHz, DTS, 5.1, 1510 Kbps | Оригинал | ENG |
скриншот  скриншот  скриншот  скриншот  

Общее
Уникальный идентификатор : 218575581678881189071992981215768563346 (0xA47020338EFF4671A1F380DF24614E92)
Полное имя : E:\торреннты\The.Girl.in.the.Spiders.Web.2018.2160p.UHD.BDRip.x265.10bit.Master5.mkv
Формат : Matroska
Версия формата : Version 4 / Version 2
Размер файла : 10,5 Гбайт
Продолжительность : 1 ч. 55 м.
Общий поток : 13,0 Мбит/сек
Название фильма : The.Girl.in.the.Spiders.Web.2018.2160p.UHD.BDRip.x265.10bit.Master5
Дата кодирования : UTC 2019-03-02 07:33:51
Программа кодирования : mkvmerge v7.9.0 ('Birds') 64bit
Библиотека кодирования : libebml v1.3.1 + libmatroska v1.4.2
Обложка : Yes
Attachments : small_cover.jpg / small_cover_land.jpg / cover.jpg / cover_land.jpg

Видео
Идентификатор : 1
Формат : HEVC
Формат/Информация : High Efficiency Video Coding
Профиль формата : Main 10@L5.1@High
Идентификатор кодека : V_MPEGH/ISO/HEVC
Продолжительность : 1 ч. 55 м.
Битрейт : 10,2 Мбит/сек
Ширина : 3840 пикселей
Высота : 1608 пикселей
Соотношение сторон : 2,40:1
Режим частоты кадров : Постоянный
Частота кадров : 23,976 (24000/1001) кадра/сек
Цветовое пространство : YUV
Субдискретизация насыщенности : 4:2:0 (Type 2)
Битовая глубина : 10 бит
Бит/(Пиксели*Кадры) : 0.067
Размер потока : 8,03 Гбайт (77%)
Заголовок : The.Girl.in.the.Spiders.Web.2018.2160p.UHD.BDRip.x265.10bit.Master5
Библиотека кодирования : x265 3.0_RC+13-ae085e5cd8a2:[Windows][GCC 8.2.1][64 bit] 10bit
Настройки программы : cpuid=1111039 / frame-threads=16 / numa-pools=24,24,24,24 / wpp / no-pmode / no-pme / no-psnr / no-ssim / log-level=2 / input-csp=1 / input-res=3840x1608 / interlace=0 / total-frames=0 / level-idc=51 / high-tier=1 / uhd-bd=0 / ref=3 / no-allow-non-conformance / repeat-headers / annexb / aud / hrd / info / hash=0 / no-temporal-layers / no-open-gop / min-keyint=1 / keyint=24 / gop-lookahead=0 / bframes=4 / b-adapt=2 / b-pyramid / bframe-bias=0 / rc-lookahead=25 / lookahead-slices=4 / scenecut=40 / radl=0 / no-splice / no-intra-refresh / ctu=64 / min-cu-size=8 / no-rect / no-amp / max-tu-size=32 / tu-inter-depth=1 / tu-intra-depth=1 / limit-tu=0 / rdoq-level=0 / dynamic-rd=0.00 / no-ssim-rd / signhide / no-tskip / nr-intra=0 / nr-inter=0 / no-constrained-intra / strong-intra-smoothing / max-merge=2 / limit-refs=3 / no-limit-modes / me=1 / subme=2 / merange=57 / temporal-mvp / weightp / no-weightb / no-analyze-src-pics / deblock=0:0 / no-sao / no-sao-non-deblock / rd=3 / no-early-skip / rskip / no-fast-intra / no-tskip-fast / no-cu-lossless / no-b-intra / no-splitrd-skip / rdpenalty=0 / psy-rd=2.00 / psy-rdoq=0.00 / no-rd-refine / no-lossless / cbqpoffs=0 / crqpoffs=0 / rc=crf / crf=16.0 / qcomp=0.60 / qpstep=4 / stats-write=0 / stats-read=0 / vbv-maxrate=160000 / vbv-bufsize=160000 / vbv-init=0.9 / crf-max=0.0 / crf-min=0.0 / ipratio=1.40 / pbratio=1.30 / aq-mode=1 / aq-strength=1.00 / cutree / zone-count=0 / no-strict-cbr / qg-size=32 / no-rc-grain / qpmax=69 / qpmin=0 / no-const-vbv / sar=1 / overscan=0 / videoformat=5 / range=0 / colorprim=9 / transfer=16 / colormatrix=9 / chromaloc=1 / chromaloc-top=2 / chromaloc-bottom=2 / display-window=0 / master-display=G(13250,34500)B(7500,3000)R(34000,16000)WP(15635,16450)L(40000000,50) / max-cll=3894,996 / min-luma=0 / max-luma=1023 / log2-max-poc-lsb=8 / vui-timing-info / vui-hrd-info / slices=1 / opt-qp-pps / opt-ref-list-length-pps / no-multi-pass-opt-rps / scenecut-bias=0.05 / no-opt-cu-delta-qp / no-aq-motion / hdr / hdr-opt / no-dhdr10-opt / no-idr-recovery-sei / analysis-reuse-level=5 / scale-factor=0 / refine-intra=0 / refine-inter=0 / refine-mv=0 / refine-ctu-distortion=0 / no-limit-sao / ctu-info=0 / no-lowpass-dct / refine-analysis-type=0 / copy-pic=1 / max-ausize-factor=1.0 / no-dynamic-refine / no-single-sei / no-hevc-aq / qp-adaptation-range=1.00
Язык : English
Default : Да
Forced : Нет
Цветовой диапазон : Limited
Основные цвета : BT.2020
Характеристики трансфера : PQ
Коэффициенты матрицы : BT.2020 non-constant
MasteringDisplay_ColorPrimaries : Display P3
MasteringDisplay_Luminance : min: 0.0050 cd/m2, max: 4000 cd/m2
MaxCLL : 3894 cd/m2
MaxFALL : 996 cd/m2

Аудио #1
Идентификатор : 2
Формат : AC-3
Формат/Информация : Audio Coding 3
Идентификатор кодека : A_AC3
Продолжительность : 1 ч. 55 м.
Вид битрейта : Постоянный
Битрейт : 640 Кбит/сек
Каналы : 6 каналов
Расположение каналов : Front: L C R, Side: L R, LFE
Частота : 48,0 КГц
Частота кадров : 31,250 кадров/сек (1536 SPF)
Битовая глубина : 16 бит
Метод сжатия : С потерями
Размер потока : 528 Мбайт (5%)
Заголовок : Дубляж License
Язык : Russian
ServiceKind/String : Complete Main
Default : Да
Forced : Да

Аудио #2
Идентификатор : 3
Формат : AC-3
Формат/Информация : Audio Coding 3
Идентификатор кодека : A_AC3
Продолжительность : 1 ч. 55 м.
Вид битрейта : Постоянный
Битрейт : 640 Кбит/сек
Каналы : 6 каналов
Расположение каналов : Front: L C R, Side: L R, LFE
Частота : 48,0 КГц
Частота кадров : 31,250 кадров/сек (1536 SPF)
Битовая глубина : 16 бит
Метод сжатия : С потерями
Размер потока : 528 Мбайт (5%)
Заголовок : Дубляж License
Язык : Ukrainian
ServiceKind/String : Complete Main
Default : Нет
Forced : Нет

Аудио #3
Идентификатор : 4
Формат : DTS
Формат/Информация : Digital Theater Systems
Идентификатор кодека : A_DTS
Продолжительность : 1 ч. 55 м.
Вид битрейта : Постоянный
Битрейт : 1509 Кбит/сек
Каналы : 6 каналов
Расположение каналов : Front: L C R, Side: L R, LFE
Частота : 48,0 КГц
Частота кадров : 93,750 кадра/сек (512 SPF)
Битовая глубина : 24 бит
Метод сжатия : С потерями
Размер потока : 1,22 Гбайт (12%)
Заголовок : Original
Язык : English
Default : Нет
Forced : Нет

Текст #1
Идентификатор : 5
Формат : UTF-8
Идентификатор кодека : S_TEXT/UTF8
Идентификатор кодека/Информация : UTF-8 Plain Text
Заголовок : Forced
Язык : Russian
Default : Да
Forced : Да

Текст #2
Идентификатор : 6
Формат : UTF-8
Идентификатор кодека : S_TEXT/UTF8
Идентификатор кодека/Информация : UTF-8 Plain Text
Заголовок : Full
Язык : Russian
Default : Нет
Forced : Нет

Текст #3
Идентификатор : 7
Формат : UTF-8
Идентификатор кодека : S_TEXT/UTF8
Идентификатор кодека/Информация : UTF-8 Plain Text
Заголовок : Full
Язык : Ukrainian
Default : Нет
Forced : Нет

Текст #4
Идентификатор : 8
Формат : UTF-8
Идентификатор кодека : S_TEXT/UTF8
Идентификатор кодека/Информация : UTF-8 Plain Text
Заголовок : Full
Язык : English
Default : Нет
Forced : Нет

Меню
00:00:00.000 : en:Chapter 01
00:10:23.915 : en:Chapter 02
00:16:32.867 : en:Chapter 03
00:21:05.431 : en:Chapter 04
00:27:34.444 : en:Chapter 05
00:34:20.058 : en:Chapter 06
00:41:41.040 : en:Chapter 07
00:48:24.318 : en:Chapter 08
00:58:39.182 : en:Chapter 09
01:05:56.828 : en:Chapter 10
01:10:31.978 : en:Chapter 11
01:20:03.924 : en:Chapter 12
01:27:18.900 : en:Chapter 13
01:35:05.533 : en:Chapter 14
01:38:04.128 : en:Chapter 15
01:43:16.565 : en:Chapter 16




Скачать Девушка, которая застряла в паутине через торрент https://d.radikal.ru/d15/1903/e2/f77c8a2c8e2f.jpg Скачать, смотреть онлайн Девушка, которая застряла в паутине бесплантно в хорошем качестве Описание: Хакер Лисбет Саландер и журналист Микаэль Блумквист оказываются втянуты в историю с участием шпионов, киберпреступников и ... 10 10 8
Торрент: Зарегистрирован [2019-03-03 14:26] · скачан: 46 раз
Статус: √ проверено
Размер: 10.49 GB
Как cкачать? Как скачать Девушка, которая застряла в паутине через торрент | UTorrent

% Раздел Тема Автор DL S | L
Ultra HD (UHD: 2K, 4K, 8K) [ 57.34 GB ] Девушка, которая застряла в паутине / The Girl in the Spider's Web | Лицензия | 2160p sheker187 Скачать
1 | 0
Фильмы 2018 [DVDrip, WEB-DLRip, HDrip] (DUB, MVO) [ 1.46 GB ] Девушка, которая застряла в паутине / The Girl in the Spider's Web | Лицензия | BDRip-AVC bober100 Скачать
1 | 0
Фильмы 2018 [DVDrip, WEB-DLRip, HDrip] (DUB, MVO) [ 2.47 GB ] Девушка, которая застряла в паутине / The Girl in the Spider's Web | Лицензия | BDRip-AVC Enigma2010 Скачать
1 | 0
Фильмы 2018 [DVDrip, WEB-DLRip, HDrip] (DUB, MVO) [ 2.18 GB ] Девушка, которая застряла в паутине / The Girl in the Spider's Web | Лицензия | BDRip Twi7ter Скачать
1 | 0
Фильмы 2018 [DVDrip, WEB-DLRip, HDrip] (DUB, MVO) [ 744 MB ] Девушка, которая застряла в паутине / The Girl in the Spider's Web | Лицензия | HDRip bober100 Скачать
1 | 0
Фильмы (Blu-ray, BD-Remux, HDDVD) [ 37.19 GB ] Девушка, которая застряла в паутине / The Girl in the Spider's Web | Лицензия | 1080p bober100 Скачать
1 | 0
Фильмы [HD 720p, 1080p] (Хороший звук DUB, MVO) [ 5.03 GB ] Девушка, которая застряла в паутине / The Girl in the Spider's Web | Лицензия | 720p bober100 Скачать
1 | 0

28-11-2019 20:33  


Отключить вcю реклaмy на сайте, в т.ч. и в плеере онлайн просмотра!

    Дорогой пользователь! Огромная просьба, поблагодарите релизера, оцените раздачу и оставьте свои комментарий, если Вы скачали Девушка, которая застряла в паутине через торрент бесплатно!!
    Комментировать посты могут только пользователи прошедшие не сложную регистрацию
    Показать сообщения:    


    Девушка, которая застряла в паутине через торрент
    Скачать бесплатно Девушка, которая застряла в паутине
    Девушка, которая застряла в паутине скачать торрент
    Девушка, которая застряла в паутине смотреть онлайн
    Cкачать фильм Девушка, которая застряла в паутине бесплатно
    Девушка, которая застряла в паутине скачать торрент в хорошем качестве
    Девушка, которая застряла в паутине смотреть онлайн бесплатно в хорошем качестве
    Вы не можете начинать темы
    Вы не можете отвечать на сообщения
    Вы не можете редактировать свои сообщения
    Вы не можете удалять свои сообщения
    Вы не можете голосовать в опросах
    Вы не можете прикреплять файлы к сообщениям
    Вы можете скачивать файлы
    Девушка, которая застряла в паутине / The Girl in the Spider's Web [2018, триллер, драма, криминал, UHD BDRip 2160p] Дубляж [Лицензия] смотреть онлайн, скачать торрент picoco.icu