Достать ножи: Стеклянная луковица

MVO

Добыча

Дубляж

Уэнсдэй

1 сезон

Тор

Дубляж

13 клиническая

1 сезон

Жестокая ночь

MVO

Одни из нас

1 сезон

Deluxe

pack

Рекомендуем

30

Пиратка

ВАЖНО

ВАЖНО

Ghostwire

Пиратка

jed

RePack

nioh2

RePack

RDR2

RePack

NEED FOR SPEED™ PAYBACK

RePack

скачать торрент

Кинопоиск HD

Острые козырьки 6 сезон

6 сезон

FAR CRY 6

RePack

скачать торрент

Лицензия

скачать торрент

MVO

1

1 сезон

скачать торрент

1 сезон

скачать торрент

Лицензия

  

Ужастики 2: Беспокойный Хэллоуин / Goosebumps 2: Haunted Halloween (Эри Сандел) [2018, ужасы, фэнтези, комедия, приключения, семейный, UHD BDRemux 2160p] Дубляж (rus, ukr) [Лицензия]

Ужастики 2: Беспокойный Хэллоуин через торрент piratbit.org

Размер: 43.93 GB | Добавлен: 3 года 11 мес. назад | Торрент скачан:36 раз
Смотреть онлайн | Скачать | Поддержите нас   

04-03-2019 17:32 Ужастики 2: Беспокойный Хэллоуин Скачать торрент  

Ужастики 2: Беспокойный Хэллоуин / Goosebumps 2: Haunted Halloween Год выпуска: 2018
Страна: США
Жанр: ужасы, фэнтези, комедия, приключения, семейный
Продолжительность: 01:29:48
Перевод: Дублированный | Лицензия
Субтитры: Русские (Forced, full), украинские (Full), английские

Режиссер: Эри Сандел

rating

В ролях:

Мэдисон Айсмен (Sarah), Джереми Рэй Тейлор (Sonny), Калил Харрис (Sam), Мик Вингерт (Slappy, озвучка), Кен Жонг (Mr. Chu), Венди МакЛендон-Кови (Kathy), Крис Парнелл (Walter), Брайс Касс (Tyler), Пейтон Уич (Tommy Madigan), Шэри Хидли (Mrs. Carter), Кристиан Финлейсон (Cooper), Мэттью Дж. Васкес (Derek)
Описание:

В заброшенном доме парочка ребят находит странную книгу «Беспокойный Хэллоуин» Р. Л. Стайна. Друзья быстро понимают, почему книгу спрятали подальше от всех, когда небольшой городок заполняют монстры разной степени ужасности.

Качество: UHD BDRemux 2160p
Формат: MKV

Видео: 3840x2160 at 23.976 fps, MPEG-H HEVC HDR Video, 64200 kbps avg
Аудио#1: 48 kHz, AC3, 640 Kbps | Дублированный | RUS |
Аудио#2: 48 kHz, AC3, 2.0, 160 Kbps | Дублированный | UKR |
Аудио#3: 48 kHz, TrueHD, 7.1, 4317 Kbps | Оригинал | ENG |
Аудио#4: 48 kHz, AC3, 5.1, 640 Kbps | Оригинал | ENG |
скриншот  скриншот  скриншот  скриншот  скриншот  

General
Unique ID : 257952791055198139032845278398612237374 (0xC20FE68418F1F4669551A10A88F7EC3E)
Complete name : F:Video1Goosebumps.2.Haunted.Halloween.2018.Lic.BDREMUX.2160p.HDR.seleZen.mkv
Format : Matroska
Format version : Version 4
File size : 43.9 GiB
Duration : 1 h 29 min
Overall bit rate mode : Variable
Overall bit rate : 70.0 Mb/s
Movie name : Goosebumps 2: Haunted Halloween 4K from селезень
Encoded date : UTC 2019-03-04 17:01:58
Writing application : mkvmerge v31.0.0 ('Dolores In A Shoestand') 64-bit
Writing library : libebml v1.3.6 + libmatroska v1.4.9

Video
ID : 1
Format : HEVC
Format/Info : High Efficiency Video Coding
Commercial name : HDR10
Format profile : Main 10@L5.1@High
Codec ID : V_MPEGH/ISO/HEVC
Duration : 1 h 29 min
Bit rate : 64.2 Mb/s
Width : 3 840 pixels
Height : 2 160 pixels
Display aspect ratio : 16:9
Frame rate mode : Constant
Frame rate : 23.976 (24000/1001) FPS
Color space : YUV
Chroma subsampling : 4:2:0 (Type 2)
Bit depth : 10 bits
Bits/(Pixel*Frame) : 0.323
Stream size : 40.3 GiB (92%)
Language : English
Default : Yes
Forced : No
Color range : Limited
Color primaries : BT.2020
Transfer characteristics : PQ
Matrix coefficients : BT.2020 non-constant
Mastering display color pri : Display P3
Mastering display luminance : min: 0.0050 cd/m2, max: 4000 cd/m2
Maximum Content Light Level : 981 cd/m2
Maximum Frame-Average Light : 979 cd/m2

Audio #1
ID : 2
Format : AC-3
Format/Info : Audio Coding 3
Commercial name : Dolby Digital
Codec ID : A_AC3
Duration : 1 h 29 min
Bit rate mode : Constant
Bit rate : 640 kb/s
Channel(s) : 6 channels
Channel layout : L R C LFE Ls Rs
Sampling rate : 48.0 kHz
Frame rate : 31.250 FPS (1536 SPF)
Bit depth : 16 bits
Compression mode : Lossy
Stream size : 411 MiB (1%)
Title : Дубляж [License]
Language : Russian
Service kind : Complete Main
Default : Yes
Forced : Yes

Audio #2
ID : 3
Format : AC-3
Format/Info : Audio Coding 3
Commercial name : Dolby Digital
Codec ID : A_AC3
Duration : 1 h 29 min
Bit rate mode : Constant
Bit rate : 160 kb/s
Channel(s) : 2 channels
Channel layout : L R
Sampling rate : 48.0 kHz
Frame rate : 31.250 FPS (1536 SPF)
Bit depth : 16 bits
Compression mode : Lossy
Stream size : 103 MiB (0%)
Title : iTunes
Language : Ukrainian
Service kind : Complete Main
Default : No
Forced : No

Audio #3
ID : 4
Format : MLP FBA 16-ch
Format/Info : Meridian Lossless Packing FBA with 16-channel presentation
Commercial name : Dolby TrueHD with Dolby Atmos
Codec ID : A_TRUEHD
Duration : 1 h 29 min
Bit rate mode : Variable
Bit rate : 4 317 kb/s
Maximum bit rate : 7 593 kb/s
Channel(s) : 8 channels
Channel layout : L R C LFE Ls Rs Lb Rb
Sampling rate : 48.0 kHz
Frame rate : 1 200.000 FPS (40 SPF)
Compression mode : Lossless
Stream size : 2.71 GiB (6%)
Title : Original
Language : English
Default : No
Forced : No
Number of dynamic objects : 11
Bed channel count : 1 channel
Bed channel configuration : LFE

Audio #4
ID : 5
Format : AC-3
Format/Info : Audio Coding 3
Commercial name : Dolby Digital
Codec ID : A_AC3
Duration : 1 h 29 min
Bit rate mode : Constant
Bit rate : 640 kb/s
Channel(s) : 6 channels
Channel layout : L R C LFE Ls Rs
Sampling rate : 48.0 kHz
Frame rate : 31.250 FPS (1536 SPF)
Bit depth : 16 bits
Compression mode : Lossy
Stream size : 411 MiB (1%)
Language : English
Service kind : Complete Main
Default : No
Forced : No

Text #1
ID : 6
Format : UTF-8
Codec ID : S_TEXT/UTF8
Codec ID/Info : UTF-8 Plain Text
Duration : 1 h 1 min
Bit rate : 0 b/s
Count of elements : 3
Stream size : 105 Bytes (0%)
Title : Forced
Language : Russian
Default : Yes
Forced : Yes

Text #2
ID : 7
Format : UTF-8
Codec ID : S_TEXT/UTF8
Codec ID/Info : UTF-8 Plain Text
Duration : 1 h 28 min
Bit rate : 80 b/s
Count of elements : 1122
Stream size : 52.0 KiB (0%)
Title : Full
Language : Russian
Default : No
Forced : No

Text #3
ID : 8
Format : UTF-8
Codec ID : S_TEXT/UTF8
Codec ID/Info : UTF-8 Plain Text
Duration : 1 h 28 min
Bit rate : 78 b/s
Count of elements : 1125
Stream size : 50.7 KiB (0%)
Title : Full
Language : Ukrainian
Default : No
Forced : No

Text #4
ID : 9
Format : UTF-8
Codec ID : S_TEXT/UTF8
Codec ID/Info : UTF-8 Plain Text
Duration : 1 h 27 min
Bit rate : 59 b/s
Count of elements : 1277
Stream size : 38.0 KiB (0%)
Title : Full
Language : English
Default : No
Forced : No

Menu
00:00:00.000 : en:Chapter 01
00:04:33.440 : en:Chapter 02
00:11:16.175 : en:Chapter 03
00:18:43.914 : en:Chapter 04
00:21:41.634 : en:Chapter 05
00:27:23.350 : en:Chapter 06
00:32:37.122 : en:Chapter 07
00:37:48.433 : en:Chapter 08
00:45:14.921 : en:Chapter 09
00:50:11.717 : en:Chapter 10
00:56:17.708 : en:Chapter 11
01:00:35.757 : en:Chapter 12
01:05:28.133 : en:Chapter 13
01:09:25.119 : en:Chapter 14
01:14:37.932 : en:Chapter 15
01:20:29.324 : en:Chapter 16




Скачать Ужастики 2: Беспокойный Хэллоуин через торрент http://img15.lostpic.net/2019/01/09/8e4e1706f0600871ec482400cfd81f79.jpg Скачать, смотреть онлайн Ужастики 2: Беспокойный Хэллоуин бесплантно в хорошем качестве Описание: В заброшенном доме парочка ребят находит странную книгу «Беспокойный Хэллоуин» Р. Л. Стайна. Друзья быстро понимают, почему книгу ... 10 10 2
Торрент: Зарегистрирован [2019-03-04 17:32] · скачан: 36 раз
Статус: √ проверено
Размер: 43.93 GB
Как cкачать? Как скачать Ужастики 2: Беспокойный Хэллоуин через торрент | UTorrent

% Раздел Тема Автор DL S | L
Ultra HD (UHD: 2K, 4K, 8K) [ 52.4 GB ] Ужастики 2: Беспокойный Хэллоуин / Goosebumps 2: Haunted Halloween | Лицензия | 2160p bober100 Скачать
1 | 0
Фильмы 2018 [DVDrip, WEB-DLRip, HDrip] (DUB, MVO) [ 749 MB ] Ужастики 2: Беспокойный Хэллоуин / Goosebumps 2: Haunted Halloween | Лицензия | HDRip bober100 Скачать
1 | 0
Фильмы 2018 [DVDrip, WEB-DLRip, HDrip] (DUB, MVO) [ 1.46 GB ] Ужастики 2: Беспокойный Хэллоуин / Goosebumps 2: Haunted Halloween | Лицензия BD EUR | BDRip bober100 Скачать
1 | 0
Фильмы (Blu-ray, BD-Remux, HDDVD) [ 17.36 GB ] Ужастики 2: Беспокойный Хэллоуин / Goosebumps 2: Haunted Halloween | Лицензия | BD Remux 1080p bober100 Скачать
1 | 0
Фильмы 2018 [DVDrip, WEB-DLRip, HDrip] (DUB, MVO) [ 1.84 GB ] Ужастики 2: Беспокойный Хэллоуин / Goosebumps 2: Haunted Halloween | Лицензия | BDRip-AVC bober100 Скачать
1 | 0
Фильмы [HD 720p, 1080p] (Хороший звук DUB, MVO) [ 4.27 GB ] Ужастики 2: Беспокойный Хэллоуин / Goosebumps 2: Haunted Halloween | Лицензия | 720p bober100 Скачать
1 | 0
Фильмы [HD 720p, 1080p] (Хороший звук DUB, MVO) [ 7.78 GB ] Ужастики 2: Беспокойный Хэллоуин / Goosebumps 2: Haunted Halloween | Лицензия | 1080p bober100 Скачать
1 | 0

28-11-2019 20:33  


Отключить вcю реклaмy на сайте, в т.ч. и в плеере онлайн просмотра!

    Дорогой пользователь! Огромная просьба, поблагодарите релизера, оцените раздачу и оставьте свои комментарий, если Вы скачали Ужастики 2: Беспокойный Хэллоуин через торрент бесплатно!!
    Комментировать посты могут только пользователи прошедшие не сложную регистрацию
    Показать сообщения:    


    Ужастики 2: Беспокойный Хэллоуин через торрент
    Скачать бесплатно Ужастики 2: Беспокойный Хэллоуин
    Ужастики 2: Беспокойный Хэллоуин скачать торрент
    Ужастики 2: Беспокойный Хэллоуин смотреть онлайн
    Cкачать фильм Ужастики 2: Беспокойный Хэллоуин бесплатно
    Ужастики 2: Беспокойный Хэллоуин скачать торрент в хорошем качестве
    Ужастики 2: Беспокойный Хэллоуин смотреть онлайн бесплатно в хорошем качестве
    Вы не можете начинать темы
    Вы не можете отвечать на сообщения
    Вы не можете редактировать свои сообщения
    Вы не можете удалять свои сообщения
    Вы не можете голосовать в опросах
    Вы не можете прикреплять файлы к сообщениям
    Вы можете скачивать файлы
    Ужастики 2: Беспокойный Хэллоуин / Goosebumps 2: Haunted Halloween [2018, ужасы, фэнтези, комедия, приключения, семейный, UHD BDRemux 2160p] Дубляж [Лицензия] смотреть онлайн, скачать торрент picoco.icu