1 сезон

3 сезон

iTunes

1

iTunes

DUB Netflix

iTunes

13

1 сезон

RePack

30

Deluxe

pack

Легкие деньги

ВАЖНО

ИГРА 18+

pack

RePack

MK11

RePack

jed

RePack

fifa19

RePack

RDR2

RePack

NEED FOR SPEED™ PAYBACK

4 сезон

9 сезон

Бесстыжие 9 сезон

Все сериалы

все сериалы на PB.wtf

RePack

FAR CRY 5

Anonymous, доброй ночи, мы не успеваем до 1 числа собрать деньги на оплату серверов, помогите нам пожалуйста в это трудное время. В качестве благодарности мы отключим Вам всю рекламу на сайте (укажите свой ник в строку Ваше имя)!

×
  
Magnet ссылка

Адаптация / Сезон: 1 / Серии: 1-17 из 17 (Фёдор Стуков) [2017, Комедия, WEB-DL 1080p] piratbit.org

Адаптация через торрент piratbit.org

Размер: 14.34 GB | Добавлен: 2 года 3 мес. назад | Торрент скачан:56 раз
Скачать  

05-03-2019 18:21 Адаптация Скачать торрент  

Адаптация Год выпуска: 2017
Страна: Россия
Жанр: Комедия
Всего серий: 17
Продолжительность: ~ 00:24:00
Субтитры: отсутствуют

Режиссер: Фёдор Стуков

rating

В ролях:

Леонид Бичевин, Артур Бесчастный, Евгения Брик (Хиривская), Юрий Стоянов, Питер Джейкобсон, Александр Ильин ст., Ася Дубровская, Брюс Джонсон, Нелли Уварова, Алексей Базанов, Андрей Бурковский, Александр Назаров (V), Иннокентий Дакаяров, Сейдулла Молдаханов, Аружан Джазильбекова, Даулет Абдыгапаров, Игорь Маслов (II), Сергей Сафронов

Описание:

Американского шпиона засылают в Газпром и ставят перед ним нереальную задачу — стать русским. Под видом русского инженера Олега Меньшова он внедряется в региональное подразделение крупной российской газодобывающей компании в городе Ноябрьск, чтобы получить секретную информацию о новейшей разработке российских ученых в области добычи газа. В идеальной подготовке шпиона есть только один пробел: он совершенно не понимает наш менталитет, что ставит под угрозу проведение всей операции. В ходе своей миссии герой знакомится с простым, но только на первый взгляд, кубанским парнем по имени Валера и местной красавицей Мариной, к которой у него постепенно возникают чувства. Американскому шпиону придется разрываться между дружбой, любовью и своей миссией. И с каждым днем выбор будет становиться все сложнее…

Качество: WEB-DL 1080p
Формат: MKV

Видео: MPEG-4 AVC, ~ 5000 Кбит/с, 1920x1080
Аудио: AC3, 2 ch, 192 Кбит/с
скриншот  скриншот  скриншот  скриншот  

Общее
Уникальный идентификатор : 234537546815366579427490947658634438399 (0xB07249D7D34B55159450FE5359E326FF)
Полное имя : D:\Adaptaciya.2017.WEB-DL.(1080p).ExKinoRay\Adaptaciya.s01.e01.2017.WEB-DL.(1080p).ExKinoRay.mkv
Формат : Matroska
Версия формата : Version 2
Размер файла : 908 Мбайт
Продолжительность : 24 м. 36 с.
Режим общего битрейта : Постоянный
Общий поток : 5159 Кбит/сек
Дата кодирования : UTC 2018-11-11 01:46:59
Программа кодирования : mkvmerge v5.8.0 ('No Sleep / Pillow') built on Sep 2 2012 15:37:04
Библиотека кодирования : libebml v1.2.3 + libmatroska v1.3.0

Видео
Идентификатор : 1
Формат : AVC
Формат/Информация : Advanced Video Codec
Профиль формата : Baseline@L4
Параметр CABAC формата : Нет
Параметр RefFrames формата : 4 кадра
Идентификатор кодека : V_MPEG4/ISO/AVC
Продолжительность : 24 м. 36 с.
Вид битрейта : Постоянный
Битрейт : 5000 Кбит/сек
Ширина : 1920 пикселей
Высота : 1080 пикселей
Соотношение сторон : 16:9
Режим частоты кадров : Постоянный
Частота кадров : 25,000 кадров/сек
Стандарт вещания : PAL
Цветовое пространство : YUV
Субдискретизация насыщенности : 4:2:0
Битовая глубина : 8 бит
Тип развёртки : Прогрессивная
Бит/(Пиксели*Кадры) : 0.096
Размер потока : 856 Мбайт (94%)
Язык : Russian
Default : Да
Forced : Нет
Цветовой диапазон : Limited
Основные цвета : BT.709
Характеристики трансфера : BT.709
Коэффициенты матрицы : BT.709

Аудио
Идентификатор : 2
Формат : AC-3
Формат/Информация : Audio Coding 3
Расширение режима : CM (complete main)
Параметр Endianness формата : Big
Идентификатор кодека : A_AC3
Продолжительность : 24 м. 36 с.
Вид битрейта : Постоянный
Битрейт : 192 Кбит/сек
Каналы : 2 канала
Расположение каналов : Front: L R
Частота : 48,0 КГц
Частота кадров : 31,250 кадров/сек (1536 spf)
Метод сжатия : С потерями
Размер потока : 33,8 Мбайт (4%)
Язык : Russian
Default : Да
Forced : Нет

piratbit.org



Скачать Адаптация через торрент https://pic1.kartinco.top/images/11/le69e.jpg Скачать фильм Адаптация через торрент бесплантно в хорошем качестве Описание: Американского шпиона засылают в Газпром и ставят перед ним нереальную задачу — стать русским. Под видом русского инженера Олега ... 10 10 5
Торрент: Зарегистрирован [2019-03-05 18:21] · скачан: 56 раз
Статус: √ проверено
Размер: 14.34 GB
Как cкачать? Как скачать Адаптация через торрент | UTorrent

% Раздел Тема Автор DL S | L
TNT serials [ 31.12 GB ] Адаптация / Сезон: 1-2 / Серии: 1-37 из 37 [2017-2019 WEB-DL 1080p] bober100 Скачать
1 | 0
R.G.Resident - Сериалы, Видео [ 4.87 GB ] Адаптация / Сезон 1 / Серии 1-17 из 17 [2017 WEB-DLRip-AVC] White Smoke Скачать
1 | 0
Наши сериалы [ 15.22 GB ] Доктор Рихтер / Сезон: 1 / Серии 1-24 из 24 [2017 Россия медицина адаптация HDTVRip] GEKADOL Скачать
1 | 0
Наши сериалы [ 10.61 GB ] Адаптация / Сезон 1 / Серии 1-17 из 17 [2017 WEB-DL 720p] White Smoke Скачать
1 | 0
Наши сериалы [ 4.96 GB ] Адаптация / Сезон 1 / 1-17 серии из 17 [2017 WEB-DLRip] bober100 Скачать
1 | 0
TNT serials [ 5.01 GB ] Адаптация / Сезон 1 / Серии 1-17 из 17 [2017 Россия SATRip] GEKADOL Скачать
1 | 0

28-11-2019 20:33  

Отключить всю рекламу на сайте

    Дорогой пользователь! Огромная просьба, поблагодарите релизера, оцените раздачу и оставьте свои комментарий, если Вы скачали Адаптация через торрент бесплатно! Внесите свою лепту в развитие PiratBit!
    Комментировать посты могут только пользователи прошедшие не сложную регистрацию
    Показать сообщения:    

    Адаптация через торрент
    Скачать бесплатно Адаптация
    Адаптация скачать торрент
    Адаптация смотреть онлайн
    Cкачать фильм Адаптация бесплатно
    Адаптация скачать торрент в хорошем качестве
    Адаптация смотреть онлайн бесплатно в хорошем качестве


    Вы не можете начинать темы
    Вы не можете отвечать на сообщения
    Вы не можете редактировать свои сообщения
    Вы не можете удалять свои сообщения
    Вы не можете голосовать в опросах
    Вы не можете прикреплять файлы к сообщениям
    Вы можете скачивать файлы