Достать ножи: Стеклянная луковица

MVO

Добыча

Дубляж

Уэнсдэй

1 сезон

Тор

Дубляж

13 клиническая

1 сезон

Жестокая ночь

MVO

Одни из нас

1 сезон

Deluxe

pack

Рекомендуем

30

Пиратка

ВАЖНО

ВАЖНО

Ghostwire

Пиратка

jed

RePack

nioh2

RePack

RDR2

RePack

NEED FOR SPEED™ PAYBACK

RePack

скачать торрент

Кинопоиск HD

Острые козырьки 6 сезон

6 сезон

FAR CRY 6

RePack

скачать торрент

Лицензия

скачать торрент

MVO

1

1 сезон

скачать торрент

1 сезон

скачать торрент

Лицензия

  

Фантастические твари: Преступления Грин-де-Вальда / Fantastic Beasts: The Crimes of Grindelwald (Дэвид Йейтс) [2018, фэнтези, приключения, семейный, UHD BDRip 2160p] Дубляж (rus, ukr) [Лицензия] + MVO [HDRezka]

Фантастические твари: Преступления Грин-де-Вальда через торрент piratbit.org

Размер: 24.32 GB | Добавлен: 3 года 10 мес. назад | Торрент скачан:232 раза
Смотреть онлайн | Скачать | Поддержите нас   

09-03-2019 11:06 Фантастические твари: Преступления Грин-де-Вальда Скачать торрент  

Фантастические твари: Преступления Грин-де-Вальда / Fantastic Beasts: The Crimes of Grindelwald««Кто сможет изменить будущее?»»

Год выпуска: 2018
Страна: Великобритания, США
Жанр: фэнтези, приключения, семейный
Продолжительность: 02:13:49
Перевод: Дублированный, профессиональный многоголосый
Субтитры: Русские (форсированные, полные), украинские (форсированные), английские (полные)
Режиссер: Дэвид Йейтс
В ролях:

Эдди Редмэйн (Newt Scamander), Джонни Депп (Grindelwald), Кэтрин Уотерстон (Tina Goldstein), Элисон Судол (Queenie Goldstein), Дэн Фоглер (Jacob Kowalski), Джуд Лоу (Albus Dumbledore), Эзра Миллер (Credence Barebone), Зои Кравиц (Leta Lestrange), Каллум Тернер (Theseus Scamander), Клаудия Ким (Nagini), Кевин Гатри (Abernathy), Кармен Эджого (Seraphina Picquery)
Описание:
Могущественный тёмный волшебник Геллерт Грин-де-Вальд пойман в Штатах, но не собирается молча сидеть в темнице и устраивает грандиозный побег. Теперь ничто не помешает ему добиться своей цели - установить превосходство волшебников над всеми немагическими существами на планете. Чтобы сорвать планы Грин-де-Вальда, Альбус Дамблдор обращается к своему бывшему студенту Ньюту Саламандеру, который соглашается помочь, не подозревая, какая опасность ему грозит. В раскалывающемся на части волшебном мире любовь и верность проверяются на прочность, а конфликт разделяет даже настоящих друзей и членов семей.
Рейтинг:

MPAA: PG-13 - Детям до 13 лет просмотр не желателен
Качество: UHD BDRip 2160p
Формат: MKV
Видео: HEVC HDR, 24600 Кбит/с, 3840x1600, 23.976 кадр/с, 10 бит
Аудио #01: Русский - 48 kHz, AC3, 5.1, 448 Kbps - Дублированный (лицензия)
Аудио #02: Русский - 48 kHz, AC3, 2.0, 192 Kbps - Профессиональный многоголосый (HDRezka)
Аудио #03: Украинский - 48 kHz, AC3, 2.0, 126 Kbps - Дублированный
Аудио #04: :f_56: Английский - 48 kHz, AC3, 5.1, 640 Kbps - Оригинал
Навигация по главам: Есть
General
Unique ID : 235653294683359155179435225268338085564 (0xB1492C75CBB02A73F1772C72715CCEBC)
Complete name : F:\Fantastic.Beasts.The.Crimes.Of.Grindelwald.2018.2160p.bdriP.x265.10bit.HDR.werecut.PROD.mkv
Format : Matroska
Format version : Version 4
File size : 24.3 GiB
Duration : 2 h 13 min
Overall bit rate : 26.0 Mb/s
Movie name : Fantastic Beasts The Crimes Of Grindelwald 2018 OT werecut.PROD.
Encoded date : UTC 2019-03-08 18:10:29
Writing application : mkvmerge v28.0.0 ('Voice In My Head') 64-bit
Writing library : libebml v1.3.6 + libmatroska v1.4.9

Video
ID : 1
Format : HEVC
Format/Info : High Efficiency Video Coding
Commercial name : HDR10
Format profile : Main 10@L5.1@High
Codec ID : V_MPEGH/ISO/HEVC
Duration : 2 h 13 min
Bit rate : 24.6 Mb/s
Width : 3 840 pixels
Height : 1 600 pixels
Display aspect ratio : 2.40:1
Frame rate mode : Constant
Frame rate : 23.976 (24000/1001) FPS
Color space : YUV
Chroma subsampling : 4:2:0 (Type 2)
Bit depth : 10 bits
Bits/(Pixel*Frame) : 0.167
Stream size : 23.0 GiB (95%)
Title : Fantastic.Beasts.The.Crimes.Of.Grindelwald.2018.2160p.BluRay.x265.10bit.HDR.DTS-HD.MA.TrueHD.7.1.Atmos-SWTYBLZ
Writing library : x265 3.0_RC+13-ae085e5cd8a2:[Windows][GCC 8.2.1][64 bit] 10bit
Encoding settings : cpuid=1111039 / frame-threads=16 / numa-pools=24,24,24,24 / wpp / no-pmode / no-pme / no-psnr / no-ssim / log-level=2 / input-csp=1 / input-res=3840x1600 / interlace=0 / total-frames=0 / level-idc=51 / high-tier=1 / uhd-bd=0 / ref=3 / no-allow-non-conformance / repeat-headers / annexb / aud / hrd / info / hash=0 / no-temporal-layers / no-open-gop / min-keyint=1 / keyint=24 / gop-lookahead=0 / bframes=4 / b-adapt=2 / b-pyramid / bframe-bias=0 / rc-lookahead=25 / lookahead-slices=4 / scenecut=40 / radl=0 / no-splice / no-intra-refresh / ctu=64 / min-cu-size=8 / no-rect / no-amp / max-tu-size=32 / tu-inter-depth=1 / tu-intra-depth=1 / limit-tu=0 / rdoq-level=0 / dynamic-rd=0.00 / no-ssim-rd / signhide / no-tskip / nr-intra=0 / nr-inter=0 / no-constrained-intra / strong-intra-smoothing / max-merge=2 / limit-refs=3 / no-limit-modes / me=1 / subme=2 / merange=57 / temporal-mvp / weightp / no-weightb / no-analyze-src-pics / deblock=0:0 / no-sao / no-sao-non-deblock / rd=3 / no-early-skip / rskip / no-fast-intra / no-tskip-fast / no-cu-lossless / no-b-intra / no-splitrd-skip / rdpenalty=0 / psy-rd=2.00 / psy-rdoq=0.00 / no-rd-refine / no-lossless / cbqpoffs=0 / crqpoffs=0 / rc=crf / crf=16.0 / qcomp=0.60 / qpstep=4 / stats-write=0 / stats-read=0 / vbv-maxrate=160000 / vbv-bufsize=160000 / vbv-init=0.9 / crf-max=0.0 / crf-min=0.0 / ipratio=1.40 / pbratio=1.30 / aq-mode=1 / aq-strength=1.00 / cutree / zone-count=0 / no-strict-cbr / qg-size=32 / no-rc-grain / qpmax=69 / qpmin=0 / no-const-vbv / sar=1 / overscan=0 / videoformat=5 / range=0 / colorprim=9 / transfer=16 / colormatrix=9 / chromaloc=1 / chromaloc-top=2 / chromaloc-bottom=2 / display-window=0 / master-display=G(13250,34500)B(7500,3000)R(34000,16000)WP(15635,16450)L(40000000,50) / max-cll=3241,902 / min-luma=0 / max-luma=1023 / log2-max-poc-lsb=8 / vui-timing-info / vui-hrd-info / slices=1 / opt-qp-pps / opt-ref-list-length-pps / no-multi-pass-opt-rps / scenecut-bias=0.05 / no-opt-cu-delta-qp / no-aq-motion / hdr / hdr-opt / no-dhdr10-opt / no-idr-recovery-sei / analysis-reuse-level=5 / scale-factor=0 / refine-intra=0 / refine-inter=0 / refine-mv=0 / refine-ctu-distortion=0 / no-limit-sao / ctu-info=0 / no-lowpass-dct / refine-analysis-type=0 / copy-pic=1 / max-ausize-factor=1.0 / no-dynamic-refine / no-single-sei / no-hevc-aq / qp-adaptation-range=1.00
Default : Yes
Forced : No
Color range : Limited
Color primaries : BT.2020
Transfer characteristics : PQ
Matrix coefficients : BT.2020 non-constant
Mastering display color pri : Display P3
Mastering display luminance : min: 0.0050 cd/m2, max: 4000 cd/m2
Maximum Content Light Level : 3241 cd/m2
Maximum Frame-Average Light : 902 cd/m2

Audio #1
ID : 2
Format : AC-3
Format/Info : Audio Coding 3
Commercial name : Dolby Digital
Codec ID : A_AC3
Duration : 2 h 13 min
Bit rate mode : Constant
Bit rate : 448 kb/s
Channel(s) : 6 channels
Channel layout : L R C LFE Ls Rs
Sampling rate : 48.0 kHz
Frame rate : 31.250 FPS (1536 SPF)
Bit depth : 16 bits
Compression mode : Lossy
Stream size : 429 MiB (2%)
Title : Dubing
Language : Russian
Service kind : Complete Main
Default : Yes
Forced : No

Audio #2
ID : 3
Format : AC-3
Format/Info : Audio Coding 3
Commercial name : Dolby Digital
Codec ID : A_AC3
Duration : 2 h 13 min
Bit rate mode : Constant
Bit rate : 192 kb/s
Channel(s) : 2 channels
Channel layout : L R
Sampling rate : 48.0 kHz
Frame rate : 31.250 FPS (1536 SPF)
Bit depth : 16 bits
Compression mode : Lossy
Stream size : 184 MiB (1%)
Title : HDRezka
Language : Russian
Service kind : Complete Main
Default : No
Forced : No

Audio #3
ID : 4
Format : AAC LC
Format/Info : Advanced Audio Codec Low Complexity
Codec ID : A_AAC-2
Duration : 2 h 13 min
Bit rate : 126 kb/s
Channel(s) : 2 channels
Channel layout : L R
Sampling rate : 44.1 kHz
Frame rate : 43.066 FPS (1024 SPF)
Compression mode : Lossy
Stream size : 120 MiB (0%)
Title : Dubbing
Language : Ukrainian
Default : No
Forced : No

Audio #4
ID : 5
Format : AC-3
Format/Info : Audio Coding 3
Commercial name : Dolby Digital
Codec ID : A_AC3
Duration : 2 h 13 min
Bit rate mode : Constant
Bit rate : 640 kb/s
Channel(s) : 6 channels
Channel layout : L R C LFE Ls Rs
Sampling rate : 48.0 kHz
Frame rate : 31.250 FPS (1536 SPF)
Bit depth : 16 bits
Compression mode : Lossy
Stream size : 613 MiB (2%)
Language : English
Service kind : Complete Main
Default : No
Forced : No

Text #1
ID : 6
Format : UTF-8
Codec ID : S_TEXT/UTF8
Codec ID/Info : UTF-8 Plain Text
Duration : 2 h 0 min
Bit rate : 1 b/s
Count of elements : 25
Stream size : 1.13 KiB (0%)
Title : Forced
Language : Russian
Default : Yes
Forced : Yes

Text #2
ID : 7
Format : UTF-8
Codec ID : S_TEXT/UTF8
Codec ID/Info : UTF-8 Plain Text
Duration : 2 h 4 min
Bit rate : 70 b/s
Count of elements : 1249
Stream size : 63.9 KiB (0%)
Title : Full
Language : Russian
Default : No
Forced : No

Text #3
ID : 8
Format : UTF-8
Codec ID : S_TEXT/UTF8
Codec ID/Info : UTF-8 Plain Text
Duration : 2 h 3 min
Bit rate : 68 b/s
Count of elements : 1190
Stream size : 62.2 KiB (0%)
Title : Full v.2
Language : Russian
Default : No
Forced : No

Text #4
ID : 9
Format : UTF-8
Codec ID : S_TEXT/UTF8
Codec ID/Info : UTF-8 Plain Text
Duration : 2 h 13 min
Bit rate : 1 b/s
Count of elements : 28
Stream size : 1.19 KiB (0%)
Title : Forced
Language : Ukrainian
Default : No
Forced : No

Text #5
ID : 10
Format : UTF-8
Codec ID : S_TEXT/UTF8
Codec ID/Info : UTF-8 Plain Text
Duration : 2 h 3 min
Bit rate : 40 b/s
Count of elements : 1185
Stream size : 36.8 KiB (0%)
Language : English
Default : No
Forced : No

Menu
00:00:00.000 : :Capítulo 01
00:07:15.310 : :Capítulo 02
00:21:39.381 : :Capítulo 03
00:32:56.850 : :Capítulo 04
00:41:41.124 : :Capítulo 05
00:50:26.190 : :Capítulo 06
00:58:21.540 : :Capítulo 07
01:12:02.860 : :Capítulo 08
01:20:23.610 : :Capítulo 09
01:34:50.059 : :Capítulo 10
01:43:08.557 : :Capítulo 11
01:51:42.237 : :Capítulo 12
02:00:31.641 : :Capítulo 13



Скачать Фантастические твари: Преступления Грин-де-Вальда через торрент https://c.radikal.ru/c43/1903/1a/eeafa67c1938.png Скачать, смотреть онлайн Фантастические твари: Преступления Грин-де-Вальда бесплантно в хорошем качестве Описание: Могущественный тёмный волшебник Геллерт Грин-де-Вальд пойман в Штатах, но не собирается молча сидеть в темнице и устраивает ... 10 10 8
Info! Золотая раздача, скачанное не засчитывается.
Торрент: Зарегистрирован [2019-03-09 13:41] · скачан: 232 раз
Статус: √ проверено
Размер: 24.32 GB
Как cкачать? Как скачать Фантастические твари: Преступления Грин-де-Вальда через торрент | UTorrent

% Раздел Тема Автор DL S | L
Фильмы (HD 720p, 1080p) (48-60 fps) [ 5.51 GB ] Фантастические твари: Преступления Грин-де-Вальда / Fantastic Beasts: The Crimes of Grindelwald | Дубляж BD CEE | DLRip 720p / 60 FPS BD CEE slaventi-69 Скачать
2 | 0
3D Фильмы [ 6.38 GB ] Фантастические твари: Преступления Грин-де-Вальда / Fantastic Beasts: The Crimes of Grindelwald | Лицензия | 1080p, Дубляж Лицензия slaventi-69 Скачать
1 | 1
Фильмы (WEB-DL 720p, 1080p) [ 5.28 GB ] Фантастические твари: Преступления Грин-де-Вальда / Fantastic Beasts: The Crimes of Grindelwald | iTunes | 1080p bober100 Скачать
1 | 0
3D Фильмы [ 18.55 GB ] Фантастические твари: Преступления Грин-де-Вальда в 3Д / Fantastic Beasts: The Crimes of Grindelwald 3D | Лицензия | 1080p serega768 Скачать
1 | 0
Фильмы [HD 720p, 1080p] (Хороший звук DUB, MVO) [ 10.34 GB ] Фантастические твари: Преступления Грин-де-Вальда / Fantastic Beasts: The Crimes of Grindelwald | Лицензия | 1080p bober100 Скачать
2 | 0
3D Фильмы [ 11.48 GB ] Фантастические твари: Преступления Грин-де-Вальда в 3Д / Fantastic Beasts: The Crimes of Grindelwald 3D | Лицензия | 1080p sheker187 Скачать
3 | 0
Фильмы (Blu-ray, BD-Remux, HDDVD) [ 38.42 GB ] Фантастические твари: Преступления Грин-де-Вальда / Fantastic Beasts: The Crimes of Grindelwald | Лицензия | BD Remux 1080p bober100 Скачать
1 | 0



Последний раз редактировалось: sheker187 (2019-03-10 05:59), всего редактировалось 2 раз(а)

28-11-2019 20:33  


Отключить вcю реклaмy на сайте, в т.ч. и в плеере онлайн просмотра!

09-03-2019 13:42 Фантастические твари: Преступления Грин-де-Вальда Скачать торрент  

Торрент обновлён!
Добавлен перевод MVO - HDRezka



    Дорогой пользователь! Огромная просьба, поблагодарите релизера, оцените раздачу и оставьте свои комментарий, если Вы скачали Фантастические твари: Преступления Грин-де-Вальда через торрент бесплатно!!
    Комментировать посты могут только пользователи прошедшие не сложную регистрацию
    Показать сообщения:    


    Фантастические твари: Преступления Грин-де-Вальда через торрент
    Скачать бесплатно Фантастические твари: Преступления Грин-де-Вальда
    Фантастические твари: Преступления Грин-де-Вальда скачать торрент
    Фантастические твари: Преступления Грин-де-Вальда смотреть онлайн
    Cкачать фильм Фантастические твари: Преступления Грин-де-Вальда бесплатно
    Фантастические твари: Преступления Грин-де-Вальда скачать торрент в хорошем качестве
    Фантастические твари: Преступления Грин-де-Вальда смотреть онлайн бесплатно в хорошем качестве
    Вы не можете начинать темы
    Вы не можете отвечать на сообщения
    Вы не можете редактировать свои сообщения
    Вы не можете удалять свои сообщения
    Вы не можете голосовать в опросах
    Вы не можете прикреплять файлы к сообщениям
    Вы можете скачивать файлы
    Фантастические твари: Преступления Грин-де-Вальда / Fantastic Beasts: The Crimes of Grindelwald [2018, фэнтези, приключения, семейный, UHD BDRip 2160p] Дубляж [Лицензия] + MVO [HDRezka] смотреть онлайн, скачать торрент picoco.icu