Достать ножи: Стеклянная луковица

MVO

Добыча

Дубляж

Уэнсдэй

1 сезон

Тор

Дубляж

13 клиническая

1 сезон

Жестокая ночь

MVO

Одни из нас

1 сезон

Deluxe

pack

Рекомендуем

30

Пиратка

ВАЖНО

ВАЖНО

Ghostwire

Пиратка

jed

RePack

nioh2

RePack

RDR2

RePack

NEED FOR SPEED™ PAYBACK

RePack

скачать торрент

Кинопоиск HD

Острые козырьки 6 сезон

6 сезон

FAR CRY 6

RePack

скачать торрент

Лицензия

скачать торрент

MVO

1

1 сезон

скачать торрент

1 сезон

скачать торрент

Лицензия

  

Недруги / Hostiles (Скотт Купер) [2017, драма, приключения, вестерн, UHD BDRemux 2160p] Дубляж [Лицензия] + AVO [Ю. Немахов]

Недруги через торрент piratbit.org

Размер: 70.52 GB | Добавлен: 3 года 7 мес. назад | Торрент скачан:17 раз
Смотреть онлайн | Скачать | Поддержите нас   

09-03-2019 13:33 Недруги Скачать торрент  

Недруги / Hostiles

Год выпуска: 2017
Страна: США
Жанр: драма, приключения, вестерн
Продолжительность: 02:14:18
Перевод: Дублированный, авторский
Субтитры: русские (forced, full - нотабеноид, Nautay), английские (full, SDH)
Режиссер: Скотт Купер
В ролях:

Кристиан Бэйл (Capt. Joseph J. Blocker), Розамунд Пайк (Rosalie Quaid), Уэс Стьюди (Chief Yellow Hawk), Рори Кокрейн (Master Sgt. Thomas Metz), Джесси Племонс (Lt. Rudy Kidder), Джонатан Мэйджерс (Corp. Henry Woodsen), Бен Фостер (Sgt. Charles Wills), Адам Бич (Black Hawk), К’Орианка Килчер (Elk Woman), Тимоти Шаламе (Pvt. Philippe DeJardin), Скотт Шеперд (Wesley Quaid), Ава Купер (Lucy Quaid)
Описание:
Когда на твоих глазах льется кровь, когда ты вынужден убивать, ты превращаешься в зверя... После долгих лет войны он дышал злобой, проклинал краснокожих, в каждом из них он видел врага. На исходе войны капитан Блокер получает приказ доставить на родину в Монтану умирающего вождя по кличке Желтый Ястреб. В цепях и кандалах он ведет семью индейцев через земли, где обитают враждебные племена и скрываются беглые преступники, где за каждым камнем поджидает смертельная опасность. Где-то на пути к отряду Блокера пристает обезумевшая от горя вдова, на глазах которой команчи убили ее детей. Эта встреча меняет всё...
Рейтинг:

MPAA: R - Лицам до 17 лет обязательно присутствие взрослого
Качество: UHD BDRemux 2160p
Формат: MKV
Видео: MPEG-H HEVC Video / 67337 kbps / 3840x2160 / 23.976 fps / 16:9 / Main 10 @ Level 5.1 @ High / 4:2:0 / 10 bits / HDR10 / BT.2020 /
Аудио 1: Russian DTS-HD Master Audio / 5.1 / 48 kHz / 3817 kbps / 24-bit (DTS Core: 5.1 / 48 kHz / 1509 kbps / 24-bit) |Дубляж, Blu-Ray|
Аудио 2: Russian AC3 / 5.1 / 48 kHz / 448 kbps / 16-bit |Ю. Немахов|
Аудио 3: English DTS-HD Master Audio / 5.1 / 48 kHz / 3582 kbps / 24-bit (DTS Core: 5.1 / 48 kHz / 1509 kbps / 24-bit) |original|
Навигация по главам: есть

Знаете ли вы, что...
Розамунд Пайк привлекла внимание режиссёра Скотта Купера игрой в музыкальной короткометражке Рингана Левиджа «Massive Attack: Voodoo in My Blood » (2016).
Розамунд Пайк и Кристиан Бэйл почти не разговаривали друг с другом на съёмочной площадке.
Фильм был полностью снят в хронологическом порядке.
Общее
Уникальный идентификатор : 23999601045368474585386866646299125541 (0x120E27B016E82D9A6310E7C473DF2725)
Полное имя : H:\UHD\Недруги.2017.UHD.Blu-Ray.Remux.2160p.mkv
Формат : Matroska
Версия формата : Version 4
Размер файла : 70,5 Гбайт
Продолжительность : 2 ч. 14 м.
Режим общего битрейта : Переменный
Общий поток : 75,2 Мбит/сек
Дата кодирования : UTC 2019-06-10 20:31:07
Программа кодирования : mkvmerge v34.0.0 ('Sight and Seen') 64-bit
Библиотека кодирования : libebml v1.3.7 + libmatroska v1.5.0
Attachments : poster.jpg

Видео
Идентификатор : 1
Формат : HEVC
Формат/Информация : High Efficiency Video Coding
Коммерческое название : HDR10
Профиль формата : Main 10@L5.1@High
Идентификатор кодека : V_MPEGH/ISO/HEVC
Продолжительность : 2 ч. 14 м.
Битрейт : 67,3 Мбит/сек
Ширина : 3840 пикселей
Высота : 2160 пикселей
Соотношение сторон : 16:9
Режим частоты кадров : Постоянный
Частота кадров : 23,976 (24000/1001) кадра/сек
Цветовое пространство : YUV
Субдискретизация насыщенности : 4:2:0 (Type 2)
Битовая глубина : 10 бит
Бит/(Пиксели*Кадры) : 0.339
Размер потока : 63,2 Гбайт (90%)
Default : Да
Forced : Нет
Цветовой диапазон : Limited
Основные цвета : BT.2020
Характеристики трансфера : PQ
Коэффициенты матрицы : BT.2020 non-constant
MasteringDisplay_ColorPrimaries : Display P3
MasteringDisplay_Luminance : min: 0.0050 cd/m2, max: 1000 cd/m2
MaxCLL : 1000 cd/m2
MaxFALL : 229 cd/m2

Аудио #1
Идентификатор : 2
Формат : DTS XLL
Формат/Информация : Digital Theater Systems
Коммерческое название : DTS-HD Master Audio
Идентификатор кодека : A_DTS
Продолжительность : 2 ч. 14 м.
Вид битрейта : Переменный
Битрейт : 3817 Кбит/сек
Каналы : 6 каналов
Channel layout : C L R Ls Rs LFE
Частота : 48,0 КГц
Частота кадров : 93,750 кадра/сек (512 SPF)
Битовая глубина : 24 бит
Метод сжатия : Без потерь
Размер потока : 3,57 Гбайт (5%)
Заголовок : Дубляж, Blu-Ray
Язык : Russian
Default : Да
Forced : Нет

Аудио #2
Идентификатор : 3
Формат : AC-3
Формат/Информация : Audio Coding 3
Коммерческое название : Dolby Digital
Идентификатор кодека : A_AC3
Продолжительность : 2 ч. 14 м.
Вид битрейта : Постоянный
Битрейт : 448 Кбит/сек
Каналы : 6 каналов
Channel layout : L R C LFE Ls Rs
Частота : 48,0 КГц
Частота кадров : 31,250 кадров/сек (1536 SPF)
Битовая глубина : 16 бит
Метод сжатия : С потерями
Размер потока : 430 Мбайт (1%)
Заголовок : Ю. Немахов
Язык : Russian
ServiceKind/String : Complete Main
Default : Нет
Forced : Нет

Аудио #3
Идентификатор : 4
Формат : DTS XLL
Формат/Информация : Digital Theater Systems
Коммерческое название : DTS-HD Master Audio
Идентификатор кодека : A_DTS
Продолжительность : 2 ч. 14 м.
Вид битрейта : Переменный
Битрейт : 3582 Кбит/сек
Каналы : 6 каналов
Channel layout : C L R Ls Rs LFE
Частота : 48,0 КГц
Частота кадров : 93,750 кадра/сек (512 SPF)
Битовая глубина : 24 бит
Метод сжатия : Без потерь
Размер потока : 3,36 Гбайт (5%)
Язык : English
Default : Нет
Forced : Нет

Текст #1
Идентификатор : 5
Формат : UTF-8
Идентификатор кодека : S_TEXT/UTF8
Идентификатор кодека/Информация : UTF-8 Plain Text
Продолжительность : 1 ч. 37 м.
Битрейт : 5 бит/сек
ElementCount : 84
Размер потока : 3,73 Кбайт (0%)
Заголовок : forced
Язык : Russian
Default : Да
Forced : Нет

Текст #2
Идентификатор : 6
Формат : UTF-8
Идентификатор кодека : S_TEXT/UTF8
Идентификатор кодека/Информация : UTF-8 Plain Text
Продолжительность : 2 ч. 3 м.
Битрейт : 45 бит/сек
ElementCount : 911
Размер потока : 41,4 Кбайт (0%)
Заголовок : нотабеноид
Язык : Russian
Default : Нет
Forced : Нет

Текст #3
Идентификатор : 7
Формат : UTF-8
Идентификатор кодека : S_TEXT/UTF8
Идентификатор кодека/Информация : UTF-8 Plain Text
Продолжительность : 2 ч. 3 м.
Битрейт : 40 бит/сек
ElementCount : 739
Размер потока : 36,6 Кбайт (0%)
Заголовок : Nautay
Язык : Russian
Default : Нет
Forced : Нет

Текст #4
Идентификатор : 8
Формат : UTF-8
Идентификатор кодека : S_TEXT/UTF8
Идентификатор кодека/Информация : UTF-8 Plain Text
Продолжительность : 2 ч. 3 м.
Битрейт : 24 бит/сек
ElementCount : 739
Размер потока : 21,7 Кбайт (0%)
Заголовок : full
Язык : English
Default : Нет
Forced : Нет

Текст #5
Идентификатор : 9
Формат : UTF-8
Идентификатор кодека : S_TEXT/UTF8
Идентификатор кодека/Информация : UTF-8 Plain Text
Продолжительность : 2 ч. 13 м.
Битрейт : 26 бит/сек
ElementCount : 936
Размер потока : 26,0 Кбайт (0%)
Заголовок : SDH
Язык : English
Default : Нет
Forced : Нет

Меню
00:00:00.000 : :Chapter 01
00:08:18.539 : :Chapter 02
00:20:32.064 : :Chapter 03
00:25:28.818 : :Chapter 04
00:34:48.336 : :Chapter 05
00:40:23.546 : :Chapter 06
00:51:40.597 : :Chapter 07
01:00:18.615 : :Chapter 08
01:08:17.176 : :Chapter 09
01:14:52.070 : :Chapter 10
01:25:29.249 : :Chapter 11
01:34:35.461 : :Chapter 12
01:43:05.512 : :Chapter 13
01:50:45.972 : :Chapter 14
01:54:10.677 : :Chapter 15
02:05:21.805 : :Chapter 16



Скачать Недруги через торрент https://b.radikal.ru/b35/1903/25/4de20fef7b62.png Скачать, смотреть онлайн Недруги бесплантно в хорошем качестве Описание: Когда на твоих глазах льется кровь, когда ты вынужден убивать, ты превращаешься в зверя... После долгих лет войны он дышал ... 10 10 4
Info! Золотая раздача, скачанное не засчитывается.
Торрент: Зарегистрирован [2019-06-12 03:49] · скачан: 17 раз
Статус: √ проверено
Размер: 70.52 GB
Как cкачать? Как скачать Недруги через торрент | UTorrent

% Раздел Тема Автор DL S | L
Фильмы 2017 [DVDrip, WEB-DLRip, HDrip] (DUB, MVO) [ 1.46 GB ] Недруги / Hostiles | Лицензия | BDRip bober100 Скачать
1 | 0
Ultra HD (UHD: 2K, 4K, 8K) [ 20.76 GB ] Недруги / Hostiles | Лицензия | 2160p sheker187 Скачать
1 | 0
Фильмы [HD 720p, 1080p] (Хороший звук DUB, MVO) [ 13.36 GB ] Недруги / Hostiles | Лицензия | 1080p bober100 Скачать
2 | 0
Фильмы 2017 [DVDrip, WEB-DLRip, HDrip] (DUB, MVO) [ 2.18 GB ] Недруги / Hostiles | Лицензия | BDRip bober100 Скачать
1 | 0
Фильмы 2017 [DVDrip, WEB-DLRip, HDrip] (DUB, MVO) [ 2.36 GB ] Недруги / Hostiles | Лицензия | BDRip-AVC bober100 Скачать
1 | 0
Фильмы (Blu-ray, BD-Remux, HDDVD) [ 42.48 GB ] Недруги / Hostiles | Лицензия | 1080p bober100 Скачать
1 | 0
Фильмы (Blu-ray, BD-Remux, HDDVD) [ 36.99 GB ] Недруги / Hostiles | Лицензия | BD Remux 1080p bober100 Скачать
1 | 0

28-11-2019 20:33  


Отключить вcю реклaмy на сайте, в т.ч. и в плеере онлайн просмотра!

    Дорогой пользователь! Огромная просьба, поблагодарите релизера, оцените раздачу и оставьте свои комментарий, если Вы скачали Недруги через торрент бесплатно!!
    Комментировать посты могут только пользователи прошедшие не сложную регистрацию
    Показать сообщения:    


    Недруги через торрент
    Скачать бесплатно Недруги
    Недруги скачать торрент
    Недруги смотреть онлайн
    Cкачать фильм Недруги бесплатно
    Недруги скачать торрент в хорошем качестве
    Недруги смотреть онлайн бесплатно в хорошем качестве
    Вы не можете начинать темы
    Вы не можете отвечать на сообщения
    Вы не можете редактировать свои сообщения
    Вы не можете удалять свои сообщения
    Вы не можете голосовать в опросах
    Вы не можете прикреплять файлы к сообщениям
    Вы можете скачивать файлы
    Недруги / Hostiles [2017, драма, приключения, вестерн, UHD BDRemux 2160p] Дубляж [Лицензия] + AVO [Ю. Немахов] смотреть онлайн, скачать торрент picoco.icu