MEGA SALE -50% FORZA HORIZON 4 ULTIMATE+ВСЕ DLC+ОНЛАЙН всего за 599р. 299 руб. (супер цена). Внимание количество ограничено!!!

iTunes

1+1

iTunes

мы

iTunes

1

iTunes

Чернобыль

iTunes

Ральф против интернета

Лицензия

ПШазам

Лицензия

Игра престолов

Лицензия

30
pack

ВАЖНО

!!Акция!!

Alien_RageХит недели

RePack

Resident Evil 21

ИГРА 18+

pack

RePack

Metro:Exodus

!!Акция!!

Alien_Rage

RePack

fifa19

RePack

Assassins Creed: Odyssey

RePack

NEED FOR SPEED™ PAYBACK

3 сезон

9 сезон

Бесстыжие 9 сезон

Все сериалы

все сериалы на PB.wtf

RePack

FAR CRY 5
Ребята, катастрофически не хватает 7730р. для оплаты серверов за АВГУСТ (всвязи с блокировками трафик упал в 3 раза), 1-2р., выручайте.
  

Анатомия страсти / Grey's Anatomy / Сезон: 15 / Серии: 1-25 из 25 (Роб Корн, Кевин МакКидд, Шандра Уилсон) [2018, Драма, мелодрама, медицина, WEB-DL 1080p] [MVO] (TVShows) piratbit.org

Анатомия страсти через торрент piratbit.org

Размер: 76.94 GB | Добавлен: 3 мес. 9 д. назад | Торрент скачан:3 раза
Скачать  

14-03-2019 15:03 Анатомия страсти Скачать торрент  

Анатомия страсти / Grey's Anatomy

Год выпуска: 2018
Страна: США
Жанр: Драма, мелодрама, медицина
Продолжительность: ~ 00:44:00
Перевод: Профессиональный (многоголосый закадровый) | TVShows

Режиссёр: Роб Корн, Дебби Аллен, Кевин МакКидд, Майкл Уоткинс, Сесиль А. Мосли, Шандра Уилсон, Николь Рубио, Криста Вернофф

В ролях: Эллен Помпео, Джастин Чэмберс, Чандра Уилсон, Джеймс Пикенс мл., Кевин МакКидд, Джесси Уильямс, Катерина Скорсоне, Камилла Ладдингтон, Келли МакКрири, Джакомо Джианниотти, Ким Рэйвер

Описание: Непотопляемая медицинская драма от Шонды Раймс возвращается с юбилейным пятнадцатым сезоном. Создатели обещают, что он станет "сезоном любви". Значит ли, что блестящий хирург, преданная подруга и заботливая мать Мередит Грей вновь обретёт своё личное счастье? В мемориальной больнице Грей-Слоан, среди бесконечного потока тяжёлых пациентов и беспрестанно влюбляющихся друг в друга коллег найти его будет совсем непросто.

скриншот  

Качество: WEB-DL 1080p
Формат: MKV
Видео: X264, 1920x1080 (16:9), 23.976 fps, ~10,0 mbps
Аудио 1: AC3, 48 kHz, 5.1 ch, 384 kbps, CBR - Rus
Аудио 2: E-AC3, 48 kHz, 5.1 ch, 640 kbps, CBR - Eng
Субтитры: английские
Format : Matroska
Format version : Version 4 / Version 2
File size : 3.33 GiB
Duration : 43 min 3 s
Overall bit rate : 11.1 Mb/s
Encoded date : UTC 2018-11-06 09:06:18
Writing application : mkvmerge v28.2.0 ('The Awakening') 64-bit
Writing library : libebml v1.3.6 + libmatroska v1.4.9

Video
ID : 1
Format : AVC
Format/Info : Advanced Video Codec
Format profile : High@L4
Format settings : CABAC / 4 Ref Frames
Format settings, CABAC : Yes
Format settings, ReFrames : 4 frames
Codec ID : V_MPEG4/ISO/AVC
Duration : 43 min 3 s
Bit rate : 10.0 Mb/s
Width : 1 920 pixels
Height : 1 080 pixels
Display aspect ratio : 16:9
Frame rate mode : Constant
Frame rate : 23.976 (24000/1001) FPS
Color space : YUV
Chroma subsampling : 4:2:0
Bit depth : 8 bits
Scan type : Progressive
Bits/(Pixel*Frame) : 0.202
Stream size : 3.02 GiB (91%)
Default : Yes
Forced : No
Color range : Limited
Color primaries : BT.709
Transfer characteristics : BT.709
Matrix coefficients : BT.709

Audio #1
ID : 2
Format : AC-3
Format/Info : Audio Coding 3
Codec ID : A_AC3
Duration : 43 min 3 s
Bit rate mode : Constant
Bit rate : 384 kb/s
Channel(s) : 6 channels
Channel positions : Front: L C R, Side: L R, LFE
Sampling rate : 48.0 kHz
Frame rate : 31.250 FPS (1536 SPF)
Bit depth : 16 bits
Compression mode : Lossy
Stream size : 118 MiB (3%)
Title : TVShows
Language : Russian
Service kind : Complete Main
Default : Yes
Forced : Yes

Audio #2
ID : 3
Format : E-AC-3
Format/Info : Enhanced Audio Coding 3
Codec ID : A_EAC3
Duration : 43 min 3 s
Bit rate mode : Constant
Bit rate : 640 kb/s
Channel(s) : 6 channels
Channel positions : Front: L C R, Side: L R, LFE
Sampling rate : 48.0 kHz
Frame rate : 187.500 FPS (256 SPF)
Compression mode : Lossy
Stream size : 197 MiB (6%)
Title : Original
Language : English
Service kind : Complete Main
Default : No
Forced : No

Text
ID : 4
Format : UTF-8
Codec ID : S_TEXT/UTF8
Codec ID/Info : UTF-8 Plain Text
Duration : 42 min 48 s
Bit rate : 114 b/s
Count of elements : 1187
Stream size : 35.8 KiB (0%)
Title : English
Language : English
Default : No
Forced : No
скриншот  скриншот  скриншот  
Когда раздача ведётся путём добавления новых серий, при каждом добавлении создётся новый торрент. Чтобы начать докачку новой серии, пользователям необходимо сделать следующее:
(1) остановить скачивание,
(2) удалить старый торрент у себя из клиента (старые серии удалять не надо),
(3) скачать новый торрент и запустить его у себя в клиенте вместо старого, при этом указать клиенту путь в старую папку, куда и должно происходить скачивание новых серий.
Ваш клиент при этом должен произвести хеширование (проверку) старой папки (если не производит сам - помогите ему сделать это), и будет докачивать только те серии, которых у вас ещё нет. Старые серии при этом не удаляются, а продолжают раздаваться!
Eсли вы уже удалили старые серии, то предотвратить повторную закачку старых серий можно, отжав галочку в соответсвующих местах при запуске нового торрента. По возможности, желательно не удалять старые серии как можно дольше, чтобы релизёр не столько продолжал раздавать старые серии, а смог сконцентрироваться на новых.
piratbit.org



Скачать Анатомия страсти через торрент https://i110.fastpic.ru/big/2019/0314/83/20674496c78c352fef2c704efa230983.jpg Скачать фильм Анатомия страсти через торрент бесплантно в хорошем качестве Описание: Непотопляемая медицинская драма от Шонды Раймс возвращается с юбилейным пятнадцатым сезоном. Создатели обещают, что он станет ... 10 10 2
Торрент: Зарегистрирован [2019-06-08 10:57] · скачан: 3 раз
Статус: √ проверено
Размер: 76.94 GB
Как cкачать? Как скачать Анатомия страсти через торрент | qTorrent


>> Регистрируемся здесь <<






Отзывы и комментарии о схеме читаем и пишем здесь: ---> Отзывы и комментарии о схеме

Новые благодарочки в телеграм довольных пользователей:
скриншот   скриншот   скриншот   скриншот   скриншот
    Дорогой пользователь! Огромная просьба, поблагодарите релизера, оцените раздачу и оставьте свои комментарий, если Вы скачали Анатомия страсти через торрент бесплатно! Внесите свою лепту в развитие PiratBit!
    Комментировать посты могут только пользователи прошедшие не сложную регистрацию
    Показать сообщения:    

    Анатомия страсти через торрент
    Скачать бесплатно Анатомия страсти
    Анатомия страсти скачать торрент
    Анатомия страсти смотреть онлайн
    Cкачать фильм Анатомия страсти бесплатно
    Анатомия страсти скачать торрент в хорошем качестве
    Анатомия страсти смотреть онлайн бесплатно в хорошем качестве


    Вы не можете начинать темы
    Вы не можете отвечать на сообщения
    Вы не можете редактировать свои сообщения
    Вы не можете удалять свои сообщения
    Вы не можете голосовать в опросах
    Вы не можете прикреплять файлы к сообщениям
    Вы можете скачивать файлы