Достать ножи: Стеклянная луковица

MVO

Добыча

Дубляж

Уэнсдэй

1 сезон

Тор

Дубляж

13 клиническая

1 сезон

Жестокая ночь

MVO

Одни из нас

1 сезон

Deluxe

pack

Рекомендуем

30

Пиратка

ВАЖНО

ВАЖНО

Ghostwire

Пиратка

jed

RePack

nioh2

RePack

RDR2

RePack

NEED FOR SPEED™ PAYBACK

RePack

скачать торрент

Кинопоиск HD

Острые козырьки 6 сезон

6 сезон

FAR CRY 6

RePack

скачать торрент

Лицензия

скачать торрент

MVO

1

1 сезон

скачать торрент

1 сезон

скачать торрент

Лицензия

  

Крид 2 / Creed II (Стивен Кейпл мл.) [2018, драма, спорт, UHD BDRemux 2160p] Дубляж [Лицензия] [Dolby Vision TV]

Крид 2 через торрент piratbit.org

Размер: 38.71 GB | Добавлен: 3 года 10 мес. назад | Торрент скачан:16 раз
Смотреть онлайн | Скачать | Поддержите нас   

16-03-2019 02:04 Крид 2 Скачать торрент  

Крид 2 / Creed II««The Legend Becomes Stronger»»

Год выпуска: 2018
Страна: США
Жанр: драма, спорт
Продолжительность: 02:10:01
Перевод: Дублированный | Лицензия
Субтитры: Русские (отдельно)
Режиссер: Стивен Кейпл мл.
В ролях:

Майкл Б. Джордан (Adonis Johnson), Сильвестр Сталлоне (Rocky Balboa), Тесса Томпсон (Bianca), Филисия Рашад (Mary Anne Creed), Дольф Лундгрен (Ivan Drago), Флориан Мунтяну (Viktor Drago), Расселл Хорнсби (Buddy Marcelle), Вуд Харрис (Tony «Little Duke» Burton), Майло Вентимилья (Robert Balboa), Робби Джонс (Logan Balboa), Андре Уорд (Danny «Stuntman» Wheeler), Бриджит Нильсен (Ludmilla Drago)
Описание:
Жизнь Адониса Крида превратилась в череду компромиссов. Пока он разрывается между долгом и тренировками к следующему большому бою, судьба готовит ему новую невыполнимую миссию. Будущий противник тесно связан с историей его семьи, что лишь повышает ставки перед предстоящим выходом на ринг. Рокки Бальбоа всегда будет на стороне Крида, и вместе они выйдут на битву с призраками их общего прошлого, выяснят, за что действительно стоит сражаться, и поймут, что нет ничего дороже семьи. Нужно вернуться к истокам, чтобы вспомнить, что именно сделало тебя чемпионом, и что, куда бы ты не бежал, от себя все равно не скрыться.
Рейтинг:

MPAA: PG-13 - Детям до 13 лет просмотр не желателен
Качество: UHD BDRemux 2160p |
Формат: MP4
Видео: HEVC, 41900 Кбит/с, 3840x2160, 23.976 кадр/с
Аудио: Русский - AC3, 6 ch, 640 Кбит/с - Дублированный_Лицензия
Данный вид релизов (контейнер MP4) предназначен для встроенного в ТВ (соответственно, с поддержкой DV) плеер.
Т.Е. Можно использовать как USB flash/HDD, так и DLNA / Plex - подобные сервисы/программы. дополнительный-внешний плеер не обязателен.

Внимание!
На моделях LG 2016 возможны сюрпризы "через раз", 2017-2018 должно идти без сюрпризов )
Общее
Полное имя : Creed.2.2018.UHD.BDRemux.2160p.DV.IVA.RUS.ExKinoRay.mp4
Формат : MPEG-4
Профиль формата : Base Media / Version 2
Идентификатор кодека : mp42 (mp42/iso6/isom/msdh/dby1)
Размер файла : 38,7 Гбайт
Продолжительность : 2 ч. 10 м.
Общий поток : 42,6 Мбит/сек
Дата кодирования : UTC 2019-03-15 18:18:51
Дата пометки : UTC 2019-03-15 18:18:51

Видео #1
Идентификатор : 1
Формат : HEVC
Формат/Информация : High Efficiency Video Coding
Коммерческое название : HDR10
Профиль формата : Main 10@L5.1@High
Идентификатор кодека : hev1
Идентификатор кодека/Информация : High Efficiency Video Coding
Продолжительность : 2 ч. 10 м.
Битрейт : 41,9 Мбит/сек
Ширина : 3840 пикселей
Высота : 2160 пикселей
Соотношение сторон : 16:9
Режим частоты кадров : Постоянный
Частота кадров : 23,976 (24000/1001) кадра/сек
Цветовое пространство : YUV
Субдискретизация насыщенности : 4:2:0 (Type 2)
Битовая глубина : 10 бит
Бит/(Пиксели*Кадры) : 0.211
Размер потока : 38,1 Гбайт (98%)
Default : Нет
Дата кодирования : UTC 2019-03-15 18:18:51
Дата пометки : UTC 2019-03-15 18:18:51
Цветовой диапазон : Limited
Основные цвета : BT.2020
Характеристики трансфера : PQ
Коэффициенты матрицы : BT.2020 non-constant
MasteringDisplay_ColorPrimaries : Display P3
MasteringDisplay_Luminance : min: 0.0050 cd/m2, max: 4000 cd/m2
MaxCLL : 2782 cd/m2
MaxFALL : 105 cd/m2
Codec configuration box : hvcC

Видео #2
Идентификатор : 2
Формат : HEVC
Формат/Информация : High Efficiency Video Coding
Коммерческое название : HDR10
Профиль формата : Main 10@L5.1@High
Dolby Vision : 1.0, dvhe.07.06, EL+RPU
Идентификатор кодека : dvhe
Идентификатор кодека/Информация : High Efficiency Video Coding with Dolby Vision
Продолжительность : 2 ч. 10 м.
Битрейт : 66,9 Кбит/сек
Ширина : 1920 пикселей
Высота : 1080 пикселей
Соотношение сторон : 16:9
Режим частоты кадров : Постоянный
Частота кадров : 23,976 (24000/1001) кадра/сек
Цветовое пространство : YUV
Субдискретизация насыщенности : 4:2:0 (Type 2)
Битовая глубина : 10 бит
Бит/(Пиксели*Кадры) : 0.001
Размер потока : 62,2 Мбайт (0%)
Default : Нет
Дата кодирования : UTC 2019-03-15 18:18:51
Дата пометки : UTC 2019-03-15 18:18:51
Цветовой диапазон : Limited
Основные цвета : BT.2020
Характеристики трансфера : PQ
Коэффициенты матрицы : BT.2020 non-constant
MasteringDisplay_ColorPrimaries : Display P3
MasteringDisplay_Luminance : min: 0.0050 cd/m2, max: 4000 cd/m2
Codec configuration box : hvcC+dvcC

Аудио
Идентификатор : 3
Формат : AC-3
Формат/Информация : Audio Coding 3
Коммерческое название : Dolby Digital
Идентификатор кодека : ac-3
Продолжительность : 2 ч. 10 м.
Вид битрейта : Постоянный
Битрейт : 640 Кбит/сек
Каналы : 6 каналов
Channel layout : L R C LFE Ls Rs
Частота : 48,0 КГц
Частота кадров : 31,250 кадров/сек (1536 SPF)
Битовая глубина : 16 бит
Метод сжатия : С потерями
Размер потока : 595 Мбайт (2%)
Язык : Russian
ServiceKind/String : Complete Main
Default : Нет
Дата кодирования : UTC 2019-03-15 18:18:51
Дата пометки : UTC 2019-03-15 18:18:51



Скачать Крид 2 через торрент https://d.radikal.ru/d00/1903/96/960cc704bc1f.png Скачать, смотреть онлайн Крид 2 бесплантно в хорошем качестве Описание: Жизнь Адониса Крида превратилась в череду компромиссов. Пока он разрывается между долгом и тренировками к следующему большому ... 5 10 1
Торрент: Зарегистрирован [2019-03-16 02:04] · скачан: 16 раз
Статус: √ проверено
Размер: 38.71 GB
Как cкачать? Как скачать Крид 2 через торрент | UTorrent

% Раздел Тема Автор DL S | L
Фильмы (HD 720p, 1080p) (48-60 fps) [ 4.13 GB ] Крид 2 / Creed II | Дубляж | 720p / 60 FPS slaventi-69 Скачать
1 | 0
Фильмы (HD 720p, 1080p) (48-60 fps) [ 17.46 GB ] Крид 2 / Creed II | Лицензия | 1080p, 60 fps sheker187 Скачать
1 | 0
Фильмы 2018 [DVDrip, WEB-DLRip, HDrip] (DUB, MVO) [ 2.18 GB ] Крид 2 / Creed II | Лицензия | BDRip Twi7ter Скачать
1 | 0
Фильмы 2018 [DVDrip, WEB-DLRip, HDrip] (DUB, MVO) [ 1.46 GB ] Крид 2 / Creed II | Лицензия | BDRip Skandar2019 Скачать
1 | 0
Ultra HD (UHD: 2K, 4K, 8K) [ 53.03 GB ] Крид 2 / Creed II | Лицензия | 2160p sheker187 Скачать
1 | 0
Фильмы 2018 [DVDrip, WEB-DLRip, HDrip] (DUB, MVO) [ 1.46 GB ] Крид 2 / Creed II | Лицензия | BDRip Twi7ter Скачать
1 | 0
# Фильмы (мультфильмы) cо спонсором показа (Новинки AVI/MKV) [ 11.82 GB ] Крид 2 / Creed II | DUB | 1080p bober100 Скачать
1 | 0

28-11-2019 20:33  


Отключить вcю реклaмy на сайте, в т.ч. и в плеере онлайн просмотра!

    Дорогой пользователь! Огромная просьба, поблагодарите релизера, оцените раздачу и оставьте свои комментарий, если Вы скачали Крид 2 через торрент бесплатно!!
    Комментировать посты могут только пользователи прошедшие не сложную регистрацию
    Показать сообщения:    


    Крид 2 через торрент
    Скачать бесплатно Крид 2
    Крид 2 скачать торрент
    Крид 2 смотреть онлайн
    Cкачать фильм Крид 2 бесплатно
    Крид 2 скачать торрент в хорошем качестве
    Крид 2 смотреть онлайн бесплатно в хорошем качестве
    Вы не можете начинать темы
    Вы не можете отвечать на сообщения
    Вы не можете редактировать свои сообщения
    Вы не можете удалять свои сообщения
    Вы не можете голосовать в опросах
    Вы не можете прикреплять файлы к сообщениям
    Вы можете скачивать файлы
    Крид 2 / Creed II [2018, драма, спорт, UHD BDRemux 2160p] Дубляж [Лицензия] [Dolby Vision TV] смотреть онлайн, скачать торрент picoco.icu