Наша группа ВК в очередной раз забанена мы уходим в Телеграм, присоединяйтесь!!!

Лицензия

30

iTunes

мы

iTunes

1

1 сезон

Чернобыль

iTunes

1+1

iTunes

Закатать в асфальт

8 сезон

Игра престолов

1 сезон

Ральф против интернета

ИГРА 18+

pack

ВАЖНО

!!Акция!!

Alien_RageХит недели

RePack

Resident Evil 21
pack

RePack

Metro:Exodus

!!Акция!!

Alien_Rage

RePack

fifa19

RePack

Assassins Creed: Odyssey

RePack

NEED FOR SPEED™ PAYBACK

3 сезон

9 сезон

Бесстыжие 9 сезон

Все сериалы

все сериалы на PB.wtf

RePack

FAR CRY 5
Ребята, катастрофически не хватает 2730р. для оплаты серверов за АПРЕЛЬ (всвязи с блокировками трафик упал в 3 раза), 1-2р., выручайте.
  

Человек-паук: Через вселенные в 3Д / Spider-Man: Into the Spider-Verse 3D (Боб Персичетти, Питер Рэмзи, Родни Ротман) [2018, мультфильм, фантастика, боевик, BDRip 1080p] DUB (rus, ukr) [iTunes] | Half OverUnder piratbit.org

Человек-паук: Через вселенные в 3Д через торрент piratbit.org

Раздают: 5 [ 13 KB/s ]
Размер: 14.04 GB | Добавлен: 2 мес. 9 д. назад | Торрент скачан:108 раз
Скачать  

17-03-2019 11:23 Человек-паук: Через вселенные в 3Д Скачать торрент  

Человек-паук: Через вселенные в 3Д / Spider-Man: Into the Spider-Verse 3D««Enter a universe where more than one wears the mask»»

Год выпуска: 2018
Страна: США
Жанр: мультфильм, фантастика, боевик, приключения, семейный
Продолжительность: 01:56:50
Перевод: Дублированный | iTunes
Субтитры:
Вшитые (softsub): Русские (Форс., Полные), Украинские (Форс., Полные), Английские (Full, SDH)
Внешние (UTF-8): Русские (Форс., Полные), Украинские (Форсированные)
Режиссер: Боб Персичетти , Питер Рэмзи , Родни Ротман
В ролях:

Шамеик Мур (Miles Morales, озвучка), Джейк Джонсон (Peter B. Parker, озвучка), Хейли Стайнфелд (Gwen Stacy, озвучка), Махершала Али (Uncle Aaron, озвучка), Брайан Тайри Генри (Jefferson Davis, озвучка), Лили Томлин (Aunt May, озвучка), Луна Лорен Велес (Rio Morales, озвучка), Зои Кравиц (Mary Jane, озвучка), Джон Малэйни (Spider-Ham, озвучка), Кимико Гленн (Peni Parker, озвучка), Николас Кейдж (Spider-Man Noir, озвучка), Кэтрин Хан (Doc Ock, озвучка)
Описание:
Мы всё знаем о Питере Паркере. Он спас город, влюбился, а потом спасал город снова и снова... Но все это - в нашем измерении. А что если в результате работы гигантского коллайдера откроется окно из одного измерения в другое? Найдется ли в нем свой Человек-паук? И как он будет выглядеть? Приготовьтесь к тому, что в разных вселенных могут быть разные Люди-пауки и однажды им придется собраться вместе для борьбы с почти непобедимым врагом.
Рейтинг:

MPAA: PG - Рекомендуется присутствие родителей
Качество: BDRip 1080p (by Ash61)
Формат: MKV
Видео: AVC / 1920х1080p / 23,976 fps / 16.0 Mbps
Формат 3D: Half OverUnder / Вертикальная анаморфная стереопара
Аудио №1: Русский / AC3 / 48 KHz / 5.1 ch / 384 Kbps (Дубляж - iTunes)
Аудио №2: Украинский / AC3 / 48 KHz / 2 ch / 192 Kbps (Дубляж)
Аудио №3: Английский / AC3 / 48 KHz / 5.1 ch / 640 Kbps (Original - BD 3D)
Навигация по главам: есть

General
Unique ID : 219918251854488339243874348441896741071 (0xA572B6F3B88AADCB91F61635CAF7E8CF)
Complete name : J:\Spider-Man.IntoTheSpider-Verse(2018)3D-halfOU(Ash61)iTunes\Spider-Man.IntoTheSpider-Verse(2018)3D-halfOU(Ash61)iTunes.mkv
Format : Matroska
Format version : Version 2
File size : 14.0 GiB
Duration : 1h 56mn
Overall bit rate : 17.2 Mbps
Movie name : Человек-паук: Через вселенные / Spider-Man: Into the Spider-Verse (2018) in 3D
Encoded date : UTC 2019-03-17 09:00:16
Writing application : mkvmerge v5.8.0 ('No Sleep / Pillow') built on Sep 2 2012 15:37:04
Writing library : libebml v1.2.3 + libmatroska v1.3.0

Video
ID : 1
Format : AVC
Format/Info : Advanced Video Codec
Format profile : High@L4.1
Format settings, CABAC : Yes
Format settings, ReFrames : 4 frames
Codec ID : V_MPEG4/ISO/AVC
Duration : 1h 56mn
Bit rate : 16.0 Mbps
Width : 1 920 pixels
Height : 1 080 pixels
Display aspect ratio : 16:9
Frame rate mode : Constant
Frame rate : 23.976 (24000/1001) fps
Color space : YUV
Chroma subsampling : 4:2:0
Bit depth : 8 bits
Scan type : Progressive
Bits/(Pixel*Frame) : 0.322
Stream size : 12.8 GiB (91%)
Title : BDRip by Ash61
Writing library : x264 core 146 r2538 121396c
Encoding settings : cabac=1 / ref=4 / deblock=1:-3:-3 / analyse=0x3:0x113 / me=umh / subme=10 / psy=1 / psy_rd=1.00:0.00 / mixed_ref=1 / me_range=32 / chroma_me=1 / trellis=2 / 8x8dct=1 / cqm=0 / deadzone=21,11 / fast_pskip=0 / chroma_qp_offset=-2 / threads=12 / lookahead_threads=3 / sliced_threads=0 / nr=0 / decimate=0 / interlaced=0 / bluray_compat=0 / constrained_intra=0 / bframes=10 / b_pyramid=2 / b_adapt=2 / b_bias=0 / direct=3 / weightb=1 / open_gop=0 / weightp=2 / keyint=250 / keyint_min=23 / scenecut=40 / intra_refresh=0 / rc_lookahead=60 / rc=2pass / mbtree=0 / bitrate=16000 / ratetol=1.0 / qcomp=0.70 / qpmin=0 / qpmax=69 / qpstep=4 / cplxblur=20.0 / qblur=0.5 / vbv_maxrate=40000 / vbv_bufsize=30000 / nal_hrd=none / filler=0 / frame-packing=4 / ip_ratio=1.40 / pb_ratio=1.30 / aq=1:0.70
Language : English
Default : Yes
Forced : No

Audio #1
ID : 2
Format : AC-3
Format/Info : Audio Coding 3
Mode extension : CM (complete main)
Format settings, Endianness : Big
Codec ID : A_AC3
Duration : 1h 56mn
Bit rate mode : Constant
Bit rate : 384 Kbps
Channel(s) : 6 channels
Channel positions : Front: L C R, Side: L R, LFE
Sampling rate : 48.0 KHz
Frame rate : 31.250 fps (1536 spf)
Compression mode : Lossy
Stream size : 321 MiB (2%)
Title : Дубляж (iTunes)
Language : Russian
Default : Yes
Forced : No

Audio #2
ID : 3
Format : AC-3
Format/Info : Audio Coding 3
Mode extension : CM (complete main)
Format settings, Endianness : Big
Codec ID : A_AC3
Duration : 1h 56mn
Bit rate mode : Constant
Bit rate : 192 Kbps
Channel(s) : 2 channels
Channel positions : Front: L R
Sampling rate : 48.0 KHz
Frame rate : 31.250 fps (1536 spf)
Compression mode : Lossy
Stream size : 160 MiB (1%)
Title : Дубляж
Language : Ukrainian
Default : No
Forced : No

Audio #3
ID : 4
Format : AC-3
Format/Info : Audio Coding 3
Mode extension : CM (complete main)
Format settings, Endianness : Big
Codec ID : A_AC3
Duration : 1h 56mn
Bit rate mode : Constant
Bit rate : 640 Kbps
Channel(s) : 6 channels
Channel positions : Front: L C R, Side: L R, LFE
Sampling rate : 48.0 KHz
Frame rate : 31.250 fps (1536 spf)
Compression mode : Lossy
Stream size : 535 MiB (4%)
Title : Original
Language : English
Default : No
Forced : No

Text #1
ID : 5
Format : UTF-8
Codec ID : S_TEXT/UTF8
Codec ID/Info : UTF-8 Plain Text
Title : Форсированные
Language : Russian
Default : Yes
Forced : No

Text #2
ID : 6
Format : UTF-8
Codec ID : S_TEXT/UTF8
Codec ID/Info : UTF-8 Plain Text
Title : Полные
Language : Russian
Default : No
Forced : No

Text #3
ID : 7
Format : UTF-8
Codec ID : S_TEXT/UTF8
Codec ID/Info : UTF-8 Plain Text
Title : Форсированные
Language : Ukrainian
Default : No
Forced : No

Text #4
ID : 8
Format : UTF-8
Codec ID : S_TEXT/UTF8
Codec ID/Info : UTF-8 Plain Text
Title : Полные
Language : Ukrainian
Default : No
Forced : No

Text #5
ID : 9
Format : UTF-8
Codec ID : S_TEXT/UTF8
Codec ID/Info : UTF-8 Plain Text
Title : Full
Language : English
Default : No
Forced : No

Text #6
ID : 10
Format : UTF-8
Codec ID : S_TEXT/UTF8
Codec ID/Info : UTF-8 Plain Text
Title : SDH
Language : English
Default : No
Forced : No

Menu
00:00:00.000 : :1
00:09:03.793 : :2
00:14:04.717 : :3
00:18:51.712 : :4
00:29:39.027 : :5
00:34:14.635 : :6
00:40:34.431 : :7
00:44:22.826 : :8
00:48:06.884 : :9
00:58:45.855 : :10
01:06:04.460 : :11
01:09:55.481 : :12
01:20:00.002 : :13
01:24:54.922 : :14
01:33:33.399 : :15
01:55:26.918 : :16
piratbit.org



Скачать Человек-паук: Через вселенные в 3Д через торрент https://a.radikal.ru/a02/1903/4a/fe26ca52d8d9.png Скачать фильм Человек-паук: Через вселенные в 3Д через торрент бесплантно в хорошем качестве Описание: Мы всё знаем о Питере Паркере. Он спас город, влюбился, а потом спасал город снова и снова... Но все это - в нашем измерении. А ... 9 10 7
Торрент: Зарегистрирован [2019-03-17 11:23] · скачан: 108 раз
Статус: √ проверено
Размер: 14.04 GB
Как cкачать? Как скачать Человек-паук: Через вселенные в 3Д через торрент | qTorrent



Последний раз редактировалось: sheker187 (2019-03-19 05:13), всего редактировалось 1 раз


>> Регистрируемся здесь <<






Отзывы и комментарии о схеме читаем и пишем здесь: ---> Отзывы и комментарии о схеме

Новые благодарочки в телеграм довольных пользователей:
скриншот   скриншот   скриншот   скриншот   скриншот

17-03-2019 17:50 Человек-паук: Через вселенные в 3Д Скачать торрент  

Всем смотреть. Рекомендую.piratbit.org



18-03-2019 07:49 Человек-паук: Через вселенные в 3Д Скачать торрент  

Чушь,зачем такое вообще снимать.piratbit.org



12-04-2019 00:19 Человек-паук: Через вселенные в 3Д Скачать торрент  

Топик был перенесен из форума 3D Мультфильмы в форум Для поглощённых раздач

Причина переноса: Человек-паук: Через вселенные 3Д / Spider-Man: Into the Spider-Verse 3D
bober100piratbit.org



    Дорогой пользователь! Огромная просьба, поблагодарите релизера, оцените раздачу и оставьте свои комментарий, если Вы скачали Человек-паук: Через вселенные в 3Д через торрент бесплатно! Внесите свою лепту в развитие PiratBit!
    Комментировать посты могут только пользователи прошедшие не сложную регистрацию
    Показать сообщения:    

    Человек-паук: Через вселенные в 3Д через торрент
    Скачать бесплатно Человек-паук: Через вселенные в 3Д
    Человек-паук: Через вселенные в 3Д скачать торрент
    Человек-паук: Через вселенные в 3Д смотреть онлайн
    Cкачать фильм Человек-паук: Через вселенные в 3Д бесплатно
    Человек-паук: Через вселенные в 3Д скачать торрент в хорошем качестве
    Человек-паук: Через вселенные в 3Д смотреть онлайн бесплатно в хорошем качестве


    Вы не можете начинать темы
    Вы не можете отвечать на сообщения
    Вы не можете редактировать свои сообщения
    Вы не можете удалять свои сообщения
    Вы не можете голосовать в опросах
    Вы не можете прикреплять файлы к сообщениям
    Вы можете скачивать файлы