Наша группа ВК в очередной раз забанена мы уходим в Телеграм, присоединяйтесь!!!

Лицензия

30

iTunes

Как приручить дракона 3

iTunes

1

1 сезон

Чернобыль

iTunes

Снегоуборщик

iTunes

Закатать в асфальт

8 сезон

Игра престолов

iTunes

Ральф против интернета Хит недели

ИГРА 18+

pack

ВАЖНО

!!Акция!!

Alien_RageХит недели

RePack

Resident Evil 21
pack

RePack

Metro:Exodus

!!Акция!!

Alien_Rage

RePack

fifa19

RePack

Assassins Creed: Odyssey

RePack

NEED FOR SPEED™ PAYBACK

3 сезон

9 сезон

Бесстыжие 9 сезон

Все сериалы

все сериалы на PB.wtf

RePack

FAR CRY 5
Ребята, катастрофически не хватает 2730р. для оплаты серверов за АПРЕЛЬ (всвязи с блокировками трафик упал в 3 раза), 1-2р., выручайте.
  

Любовь, смерть и роботы / Love, Death & Robots (Тим Миллер) [2019 г., мультфильм, ужасы, фантастика, фэнтези, комедия, боевик, криминал, WEB-DLRip] Dub [BTI Studios & Пифагор] piratbit.org

Любовь, смерть и роботы через торрент piratbit.org

Раздают: 19 [ 52 KB/s ] Качают: 5 [ 0 KB/s ]
Размер: 2.97 GB | Добавлен: 2 мес. 5 д. назад | Торрент скачан:252 раза
Скачать  

17-03-2019 17:49 Любовь, смерть и роботы Скачать торрент  

Любовь смерть и роботы / Love Death & Robots

Год выпуска: 2019
Страна: США
Жанр: мультфильм, ужасы, фантастика, фэнтези, комедия, боевик, криминал
Продолжительность: ~00:11:00-00:17:00
Перевод: Профессиональный (дублированный) BTI Studios & Пифагор по заказу Netflix
Субтитры: русские (полные) - отдельно

Режиссер: Тим Миллер


rating

В ролях: Нолан Норт (Ugly Dave, озвучка), Мэттью Кинг (Adult Liang, озвучка), Джош Бренер (K-VRC, озвучка), Генри Даутуэйт (Thom, озвучка), Грэхэм Хэмилтон (Decker, озвучка), Эмили О’Брайэн (The Woman, озвучка), Хелен Сэдлер (Sonnie, озвучка), Илэйн Тан (Adult Yan), Адам Бартли (Sobieski, озвучка), Мэделин Найт (Greta, озвучка), Хейли МакЛафлин (Jennifer, озвучка), Андре Соглиуззо (Pearly, озвучка)

Описание: Проект Любовь, смерть и роботы - это отдельный вид искусства. Сериал представляет собой великолепную смесь историй, представленных в совершенно различных жанрах. Здесь вас ожидает столкновение с классическими элементами научной фантастики, необычным юмором, удивительным фэнтезийным миром и по-настоящему пробирающим до мурашек ужасом. Каждый из персонажей в проекте покажется вам странным, как минимум. Здесь происходит настоящий вынос мозга, к которому никак не привыкнуть и не подготовиться. Если вы готовы смотреть историю, где в центре внимания оказываются молочные продукты, неожиданно ожившие после загадочных обстоятельств, безумные роботы, стремящиеся захватить мир и солдаты, способные обращаться в животных, то добро пожаловать к экранам! Перед вами потрясающая история, которая обязательно придётся по душе всем поклонникам безумств и абсурда!

Качество: WEB-DLRip
Формат: AVI
Видео кодек: XviD
Аудио кодек: MP3
Видео: 704x352 (2.00:1), 24 fps, XviD build 73 ~1600 kbps avg, 0.269 bit/pixel
Аудио#1: 48 kHz, MPEG Layer 3, 2 ch, ~128.00 kbps avg | RUS | BTI Studios & Пифагор
Аудио#2: 48 kHz, MPEG Layer 3, 2 ch, ~128.00 kbps avg | ENG

Релиз:


01. Хищники Сонни / Sonnie's Edge
02. Три робота / Three Robots
03. Свидетель / The Witness
04. Сгодится / Suits
05. Высасывающий души / Sucker of Souls
06. Когда йогурт победил / When The Yogurt Took Over
07. За пределами разлома Орла / Beyond the Aquila Rift
08. Удачной охоты / Good Hunting
09. Свалка / The Dump
10. Оборотни / Shape-Shifters
11. Рука помощи / Helping Hand
12. Ночная рыбка / Fish Night
13. Везунчик 13 / Lucky 13
14. Синий Зима / Zima Blue
15. Слепая зона / Blind Spot
16. Ледниковый период / Ice Age
17. Альтернативные истории / Alternate Histories
18. Тайная война / Secret War

General
Complete name : D:\Мои рипы\Love.Death.and.Robots.S01.WEB-DLRip.DUB.OlLanDGroup\Love.Death.and.Robots.S01E03.The.Witness.WEB-DLRip.DUB.OlLanDGroup.avi
Format : AVI
Format/Info : Audio Video Interleave
File size : 161 MiB
Duration : 12 min 6 s
Overall bit rate : 1 862 kb/s
Writing application : VirtualDubMod 1.5.10.2 (build 2540/release)
Writing library : VirtualDubMod build 2540/release

Video
ID : 0
Format : MPEG-4 Visual
Format profile : Advanced Simple@L5
Format settings : BVOP1 / Custom Matrix
Format settings, BVOP : 1
Format settings, QPel : No
Format settings, GMC : No warppoints
Format settings, Matrix : Custom
Codec ID : XVID
Codec ID/Hint : XviD
Duration : 12 min 6 s
Bit rate : 1 592 kb/s
Width : 704 pixels
Height : 352 pixels
Display aspect ratio : 2.000
Frame rate : 24.000 FPS
Color space : YUV
Chroma subsampling : 4:2:0
Bit depth : 8 bits
Scan type : Progressive
Compression mode : Lossy
Bits/(Pixel*Frame) : 0.268
Stream size : 138 MiB (85%)
Writing library : XviD 73

Audio #1
ID : 1
Format : MPEG Audio
Format version : Version 1
Format profile : Layer 3
Codec ID : 55
Codec ID/Hint : MP3
Duration : 12 min 6 s
Bit rate mode : Constant
Bit rate : 128 kb/s
Channel(s) : 2 channels
Sampling rate : 48.0 kHz
Frame rate : 41.667 FPS (1152 SPF)
Compression mode : Lossy
Stream size : 11.1 MiB (7%)
Alignment : Aligned on interleaves
Interleave, duration : 42 ms (1.00 video frame)
Interleave, preload duration : 504 ms
Writing library : LAME3.99r
Encoding settings : -m s -V 4 -q 2 -lowpass 17 -b 128

Audio #2
ID : 2
Format : MPEG Audio
Format version : Version 1
Format profile : Layer 3
Codec ID : 55
Codec ID/Hint : MP3
Duration : 12 min 6 s
Bit rate mode : Constant
Bit rate : 128 kb/s
Channel(s) : 2 channels
Sampling rate : 48.0 kHz
Frame rate : 41.667 FPS (1152 SPF)
Compression mode : Lossy
Stream size : 11.1 MiB (7%)
Alignment : Aligned on interleaves
Interleave, duration : 42 ms (1.00 video frame)
Interleave, preload duration : 504 ms
Writing library : LAME3.99r
Encoding settings : -m s -V 4 -q 2 -lowpass 17 -b 128

piratbit.org



Скачать Любовь, смерть и роботы через торрент http://img16.lostpic.net/2019/03/17/84bc708fc863858c64dbdab7c45de1d8.th.jpg Скачать фильм Любовь, смерть и роботы через торрент бесплантно в хорошем качестве Описание: Проект Любовь, смерть и роботы - это отдельный вид искусства. Сериал представляет собой великолепную смесь историй, ... 10 10 7
Торрент: Зарегистрирован [2019-03-17 17:49] · скачан: 252 раз
Статус: √ проверено
Размер: 2.97 GB
Как cкачать? Как скачать Любовь, смерть и роботы через торрент | qTorrent


>> Регистрируемся здесь <<






Отзывы и комментарии о схеме читаем и пишем здесь: ---> Отзывы и комментарии о схеме

Новые благодарочки в телеграм довольных пользователей:
скриншот   скриншот   скриншот   скриншот   скриншот

17-03-2019 19:16 Любовь, смерть и роботы Скачать торрент  

мне понравилось.хорошие прикольные мульты. жаль что короткие в среднем по 15 минут.piratbit.org



14-04-2019 16:02 Любовь, смерть и роботы Скачать торрент  

обалденные,оценка 9 из 10,всем советую piratbit.org



    Дорогой пользователь! Огромная просьба, поблагодарите релизера, оцените раздачу и оставьте свои комментарий, если Вы скачали Любовь, смерть и роботы через торрент бесплатно! Внесите свою лепту в развитие PiratBit!
    Комментировать посты могут только пользователи прошедшие не сложную регистрацию
    Показать сообщения:    

    Любовь, смерть и роботы через торрент
    Скачать бесплатно Любовь, смерть и роботы
    Любовь, смерть и роботы скачать торрент
    Любовь, смерть и роботы смотреть онлайн
    Cкачать фильм Любовь, смерть и роботы бесплатно
    Любовь, смерть и роботы скачать торрент в хорошем качестве
    Любовь, смерть и роботы смотреть онлайн бесплатно в хорошем качестве


    Вы не можете начинать темы
    Вы не можете отвечать на сообщения
    Вы не можете редактировать свои сообщения
    Вы не можете удалять свои сообщения
    Вы не можете голосовать в опросах
    Вы не можете прикреплять файлы к сообщениям
    Вы можете скачивать файлы