Доктор Стрэндж

Лицензия

Добыча

MVO

Дом дракона

1 сезон

Тор

Лицензия

Мэверик

Лицензия

Там, где раки поют

MVO

Властелин колец

1 сезон

Ultimate

pack

Рекомендуем

30

Repack

ВАЖНО

ВАЖНО

Ghostwire

RePack

jed

RePack

nioh2

RePack

RDR2

RePack

NEED FOR SPEED™ PAYBACK

RePack

скачать торрент

Кинопоиск HD

Острые козырьки 6 сезон

6 сезон

FAR CRY 6

RePack

скачать торрент

Лицензия

скачать торрент

MVO

1

1 сезон

скачать торрент

1 сезон

скачать торрент

Лицензия

  

Встреча на переправе (Гавриил Егиазаров) [1963, СССР, короткометражка, VHSRip-AVC от AVP Studio]

Встреча на переправе через торрент piratbit.org

Размер: 745 MB | Добавлен: 3 года 6 мес. назад | Торрент скачан:5 раз
Смотреть онлайн Встреча на переправе | Скачать   

18-03-2019 08:20 Встреча на переправе Скачать торрент  

Встреча на переправе
Страна: СССР
Производство: Мосфильм

Жанр: короткометражка
Год выпуска: 1963
Продолжительность: 00:47:22

Перевод: Не требуется
Cубтитры: нет
Оригинальная аудиодорожка: русский

Режиссер: Гавриил Егиазаров

В ролях:
Инга Шантырь, Геннадий Фролов, Игорь Цветков...
Об актёрах подробней

Описание:
Кончилась война. Демобилизованный солдат Чепурнов (Геннадий Фролов) едет к своей невесте Варе Карповой, которую знает по переписке. По пути на пароме Чепурнов знакомится с перевозчицей Клавдией. Молодая женщина знает его невесту и знает то, что Валентина писала не только Чепурнову. Но об этом она молчит — ей нравится задумчивый солдат, и она не хочет его расстраивать. А солдату нравится Клавдия, и он уже все знает про нее и знает то, что она одна растит сына. Но он едет к Валентине, потому что обещал. Долго Чепурнов там не задержится...

Исходник: VHS
Качество видео: VHSRip-AVC
Формат видео: MKV

Видео: 704->760x570 (4:3), 25,000 кадров/сек, H264 ~ 2005 kbps avg, 0.200 bit/pixel
Аудио: 48 kHz, Dolby Digital AC3 2.0, 192 kbps

Раздача от:
Общее
Полное имя : Vstrecha.na.pereprave.1963.VHSRip-AVC_[New-team]_by_AVP_Studio.mkv
Формат : Matroska
Версия формата : Version 2
Размер файла : 745 Мбайт
Продолжительность : 47 м. 22 с.
Общий поток : 2198 Кбит/сек
Дата кодирования : UTC 2019-03-11 15:38:55
Программа кодирования : mkvmerge v6.1.0 ('Old Devil') built on Mar 4 2013 09:10:42
Библиотека кодирования : libebml v1.3.0 + libmatroska v1.4.0

Видео
Идентификатор : 1
Формат : AVC
Формат/Информация : Advanced Video Codec
Профиль формата : High@L4.1
Настройки формата : CABAC / 10 Ref Frames
Параметр CABAC формата : Да
Параметр RefFrames формата : 10 кадров
Идентификатор кодека : V_MPEG4/ISO/AVC
Продолжительность : 47 м. 22 с.
Битрейт : 2005 Кбит/сек
Ширина : 704 пикселя
Высота : 570 пикселей
Соотношение сторон : 4:3
Режим частоты кадров : Постоянный
Частота кадров : 25,000 кадров/сек
Цветовое пространство : YUV
Субдискретизация насыщенности : 4:2:0
Битовая глубина : 8 бит
Тип развёртки : Прогрессивная
Бит/(Пиксели*Кадры) : 0.200
Размер потока : 665 Мбайт (89%)
Библиотека кодирования : x264 core 157 r2935 545de2f
Настройки программы : cabac=1 / ref=10 / deblock=1:-2:-1 / analyse=0x3:0x113 / me=umh / subme=10 / psy=1 / psy_rd=1.00:0.00 / mixed_ref=1 / me_range=32 / chroma_me=1 / trellis=2 / 8x8dct=1 / cqm=0 / deadzone=21,11 / fast_pskip=1 / chroma_qp_offset=-2 / threads=6 / lookahead_threads=1 / sliced_threads=0 / nr=0 / decimate=0 / interlaced=0 / bluray_compat=0 / constrained_intra=0 / bframes=8 / b_pyramid=2 / b_adapt=2 / b_bias=0 / direct=3 / weightb=1 / open_gop=0 / weightp=2 / keyint=250 / keyint_min=25 / scenecut=40 / intra_refresh=0 / rc=2pass / mbtree=0 / bitrate=2005 / ratetol=1.0 / qcomp=0.60 / qpmin=0 / qpmax=69 / qpstep=4 / cplxblur=20.0 / qblur=0.5 / ip_ratio=1.40 / pb_ratio=1.30 / aq=1:1.00
Default : Да
Forced : Нет

Аудио
Идентификатор : 2
Формат : AC-3
Формат/Информация : Audio Coding 3
Коммерческое название : Dolby Digital
Идентификатор кодека : A_AC3
Продолжительность : 47 м. 22 с.
Вид битрейта : Постоянный
Битрейт : 192 Кбит/сек
Каналы : 2 канала
Channel layout : L R
Частота : 48,0 КГц
Частота кадров : 31,250 кадров/сек (1536 SPF)
Битовая глубина : 16 бит
Метод сжатия : С потерями
Размер потока : 65,0 Мбайт (9%)
Default : Да
Forced : Нет



Скачать Встреча на переправе через торрент http://picplus.ru/img/1903/18/80d0eaa3.png Скачать, смотреть онлайн Встреча на переправе бесплантно в хорошем качестве Описание:Кончилась война. Демобилизованный солдат Чепурнов (Геннадий Фролов) едет к своей невесте Варе Карповой, которую знает по ... 10 10 1
Торрент: Зарегистрирован [2019-03-18 08:20] · скачан: 5 раз
Статус: √ проверено
Размер: 745 MB
Как cкачать? Как скачать Встреча на переправе через торрент | UTorrent

% Раздел Тема Автор DL S | L
Кино СССР [ 745 MB ] Встреча на переправе | | Встреча на переправе (Гавриил Егиазаров AVP Studio Скачать
1 | 0

28-11-2019 20:33  

Отключить вcю реклaмy на сайте

    Дорогой пользователь! Огромная просьба, поблагодарите релизера, оцените раздачу и оставьте свои комментарий, если Вы скачали Встреча на переправе через торрент бесплатно!!
    Комментировать посты могут только пользователи прошедшие не сложную регистрацию
    Показать сообщения:    


    Встреча на переправе через торрент
    Скачать бесплатно Встреча на переправе
    Встреча на переправе скачать торрент
    Встреча на переправе смотреть онлайн
    Cкачать фильм Встреча на переправе бесплатно
    Встреча на переправе скачать торрент в хорошем качестве
    Встреча на переправе смотреть онлайн бесплатно в хорошем качестве
    Вы не можете начинать темы
    Вы не можете отвечать на сообщения
    Вы не можете редактировать свои сообщения
    Вы не можете удалять свои сообщения
    Вы не можете голосовать в опросах
    Вы не можете прикреплять файлы к сообщениям
    Вы можете скачивать файлы