Мега распродажа FORZA HORIZON 4 ULTIMATE+ВСЕ DLC+ОНЛАЙН всего за 499р. 349 руб. (супер цена). Внимание количество ограничено!!!

iTunes

1+1

iTunes

мы

iTunes

1

1 сезон

Чернобыль

1 сезон

Ральф против интернета

Лицензия

ПШазам

8 сезон

Игра престолов

Лицензия

30
pack

ВАЖНО

!!Акция!!

Alien_RageХит недели

RePack

Resident Evil 21

ИГРА 18+

pack

RePack

Metro:Exodus

!!Акция!!

Alien_Rage

RePack

fifa19

RePack

Assassins Creed: Odyssey

RePack

NEED FOR SPEED™ PAYBACK

3 сезон

9 сезон

Бесстыжие 9 сезон

Все сериалы

все сериалы на PB.wtf

RePack

FAR CRY 5
Ребята, катастрофически не хватает 2730р. для оплаты серверов за ИЮНЬ (всвязи с блокировками трафик упал в 3 раза), 1-2р., выручайте.
  

Вдова / The Widow / Сезон: 1 / Серии: 1-8 из 8 (Оливер Блэкберн, Сэмюэл Донован) [2019, Триллер, WEB-DLRip] [MVO] (TVShows) piratbit.org

Вдова через торрент piratbit.org

Раздают: 3 [ 0 KB/s ]
Размер: 6.18 GB | Добавлен: 2 мес. 4 д. назад | Торрент скачан:57 раз
Скачать  

18-03-2019 10:27 Вдова Скачать торрент  

Вдова | The Widow
Год выпуска: 2019
Страна: Великобритания
Жанр: триллер
Продолжительность: ~ 00:47:00

Перевод: Профессиональный (многоголосый закадровый) *TVShows*

Режиссёр: Оливер Блэкберн, Сэмюэл Донован

В ролях: Кейт Бекинсейл, Алекс Кингстон, Бабс Олусанмокун, Чарльз Дэнс, Оулавюр Дарри Оулафссон, Джеки Идо, Барт Фаш, Мэттью Ле Невез и др.
Описание: Муж Джоржии погиб в результате авиакатастрофы. Ну, или так все считают, ведь его тела среди погибших не обнаружилось. Постепенно женщина понимает, что всё гораздо сложнее, чем кажется на первый взгляд, и отправляется в опасное путешествие на поиски пропавшего супруга.
скриншот  

Качество: WEB-DLRip
Формат: AVI
Видео: XVID, 704x352, 25.000 fps, ~2000 kbps avg, ~0.32 bit/pixel
Аудио Rus: AC3, 48.0 KHz, 6 channels, 384 kbps
Субтитры: нет
General
Complete name : G:\Вдова (Сезон 1) TVShows\The.Widow.S01E01.WEB-DLRip.RGzsRutracker.Celta88.avi
Format : AVI
Format/Info : Audio Video Interleave
File size : 844 MiB
Duration : 49 min 17 s
Overall bit rate : 2 394 kb/s
Writing application : VirtualDubMod 1.5.10.3 | www.virtualdub-fr.org || (build 2550/release)
Writing library : VirtualDubMod build 2550/release

Video
ID : 0
Format : MPEG-4 Visual
Format profile : Advanced Simple@L5
Format settings, BVOP : 1
Format settings, QPel : No
Format settings, GMC : No warppoints
Format settings, Matrix : Custom
Codec ID : XVID
Codec ID/Hint : XviD
Duration : 49 min 17 s
Bit rate : 2 000 kb/s
Width : 704 pixels
Height : 352 pixels
Display aspect ratio : 2.000
Frame rate : 25.000 FPS
Color space : YUV
Chroma subsampling : 4:2:0
Bit depth : 8 bits
Scan type : Progressive
Compression mode : Lossy
Bits/(Pixel*Frame) : 0.323
Stream size : 705 MiB (84%)
Writing library : XviD 73

Audio
ID : 1
Format : AC-3
Format/Info : Audio Coding 3
Mode extension : CM (complete main)
Format settings, Endianness : Big
Codec ID : 2000
Duration : 49 min 17 s
Bit rate mode : Constant
Bit rate : 384 kb/s
Channel(s) : 6 channels
Channel positions : Front: L C R, Side: L R, LFE
Sampling rate : 48.0 kHz
Frame rate : 31.250 FPS (1536 spf)
Bit depth : 16 bits
Compression mode : Lossy
Stream size : 135 MiB (16%)
Alignment : Split accross interleaves
Interleave, duration : 40 ms (1.00 video frame)
Interleave, preload duratio : 500 ms
скриншот  скриншот  скриншот  
Внимание! Раздача ведётся путём добавления новых серий; при каждом добавлении создаётся новый торрент.
Чтобы начать докачку новой серии, пользователям необходимо сделать следующее:
1. Остановить скачивание.
2. Удалить старый торрент у себя из клиента (старые серии удалять не надо).
3. Скачать новый торрент и запустить его у себя в клиенте вместо старого, при этом указать клиенту путь в старую папку куда и должно происходить скачивание новых серий.
Ваш клиент при этом должен произвести хеширование (проверку) старой папки (если не производит сам - помогите ему сделать это), и будет докачивать только те серии которых у вас ещё нет. Старые серии при этом не удаляются, а продолжают раздаваться!
Eсли вы уже удалили старые серии, то предотвратить повторную закачку старых серий можно, отжав галочку в соответствующих местах при запуске нового торрента.
piratbit.org



Скачать Вдова через торрент https://i109.fastpic.ru/big/2019/0305/30/e19dba75ca98e015b3b64df5cddb1c30.jpg Скачать фильм Вдова через торрент бесплантно в хорошем качестве Описание: Муж Джоржии погиб в результате авиакатастрофы. Ну, или так все считают, ведь его тела среди погибших не обнаружилось. Постепенно ... 10 10 3
Торрент: Зарегистрирован [2019-05-15 14:21] · скачан: 57 раз
Статус: √ проверено
Размер: 6.18 GB
Как cкачать? Как скачать Вдова через торрент | qTorrent

% Раздел Тема Автор DL S | L
Зарубежные сериалы [ 21.22 GB ] Вдова / The Widow / Сезон: 1 / Серии: 1-8 из 8 [2019 WEB-DL 1080p] [MVO] killermax2013 Скачать
3 | 0
Зарубежные сериалы [ 8.4 GB ] Вдова / The Widow / Сезон: 1 / Серии: 1-8 из 8 [2019 WEB-DLRip 720p] [MVO] killermax2013 Скачать
1 | 0
Зарубежные сериалы [ 20.23 GB ] Вдова / The Widow / Сезон: 1 / Серии: 1-8 из 8 [2019 WEB-DL 1080p] 2x[Sub] killermax2013 Скачать
1 | 0
Зарубежные сериалы [ 20.56 GB ] Вдова / The Widow / Сезон: 1 / Серии: 1-8 из 8 [2019 WEB-DL 1080p] [MVO] killermax2013 Скачать
1 | 0


>> Регистрируемся здесь <<






Отзывы и комментарии о схеме читаем и пишем здесь: ---> Отзывы и комментарии о схеме

Новые благодарочки в телеграм довольных пользователей:
скриншот   скриншот   скриншот   скриншот   скриншот
    Дорогой пользователь! Огромная просьба, поблагодарите релизера, оцените раздачу и оставьте свои комментарий, если Вы скачали Вдова через торрент бесплатно! Внесите свою лепту в развитие PiratBit!
    Комментировать посты могут только пользователи прошедшие не сложную регистрацию
    Показать сообщения:    

    Вдова через торрент
    Скачать бесплатно Вдова
    Вдова скачать торрент
    Вдова смотреть онлайн
    Cкачать фильм Вдова бесплатно
    Вдова скачать торрент в хорошем качестве
    Вдова смотреть онлайн бесплатно в хорошем качестве


    Вы не можете начинать темы
    Вы не можете отвечать на сообщения
    Вы не можете редактировать свои сообщения
    Вы не можете удалять свои сообщения
    Вы не можете голосовать в опросах
    Вы не можете прикреплять файлы к сообщениям
    Вы можете скачивать файлы