1 сезон

3 сезон

iTunes

1

iTunes

DUB Netflix

iTunes

13

1 сезон

RePack

30

Deluxe

pack

Легкие деньги

ВАЖНО

ИГРА 18+

pack

RePack

MK11

RePack

jed

RePack

fifa19

RePack

RDR2

RePack

NEED FOR SPEED™ PAYBACK

4 сезон

9 сезон

Бесстыжие 9 сезон

Все сериалы

все сериалы на PB.wtf

RePack

FAR CRY 5

Anonymous, доброй ночи, мы не успеваем до 1 числа собрать деньги на оплату серверов, помогите нам пожалуйста в это трудное время. В качестве благодарности мы отключим Вам всю рекламу на сайте (укажите свой ник в строку Ваше имя)!

×
  
Magnet ссылка

Адаптация / Сезон: 2 / Серии: 1-20 из 20 + Фильм о сериале (Александр Назаров) [2019, комедия, WEB-DLRip] piratbit.org

Адаптация через торрент piratbit.org

Раздают: 1 [ 0 KB/s ] Качают: 1 [ 0 KB/s ]
Размер: 6.16 GB | Добавлен: 2 года 2 мес. назад | Торрент скачан:161 раз
Скачать  

18-03-2019 19:27 Адаптация Скачать торрент  

Адаптация Год выпуска: 2019
Страна: Россия
Жанр: комедия
Продолжительность: ~ 00:25:00 (Серия)
Субтитры: отсутствуют

Режиссер: Александр Назаров

rating


В ролях:

Леонид Бичевин, Юрий Стоянов, Питер Джейкобсон, Евгения Брик, Артур Бесчастный, Ася Дубровская, Аружан Джазильбекова, Елена Ласкавая, Нелли Уварова, Александр Лыков, Александр Ильин

Описание:

Агент ЦРУ Эштон Айви возвращается в Ноябрьск, чтобы забрать в Америку свою любовь Марину, а заодно помочь России защитить свои природные богатства. В Ноябрьске нет Диснейленда, знаменитой картинной галереи или шикарного пляжа. Здесь даже собора со шпилем нет. Тем не менее этот город регулярно посещают сомнительные личности вроде американского шпиона Эштона Айви. Вот и сейчас агент снова в России. Он далеко не новичок, поэтому прибыл в Ноябрьск один, без прикрытия ЦРУ. Главная задача Айви в этот раз — увезти в Штаты свою любимую женщину Марину. Ради нее он готов рискнуть не только своей карьерой, но и жизнью. Сумев улизнуть от бывших коллег, он тут же попал на крючок российских спецслужб. Его оппонент – полковник контрразведки Евдокимов вербует американца и вынуждает принять участие в операции государственной важности. Китайские товарищи положили глаз на российский газ и хотят забрать себе стратегическое месторождение. Ради обретения своей любимой Эштону придется принять предложение, поэтому американцу ничего не остается кроме как сказать: «Служу России!».

Качество: WEB-DLRip
Формат: AVI

Видео: 720x400 (16:9), 25.000 fps, XviD, 1493 Kbps, 0.20 bit/pixel
Аудио: 48 kHz, AC3, 2/0 (L,R) ch, 192.00 kbps
скриншот  скриншот  скриншот  скриншот  

General
Complete name : Downloads\Adaptatsiya.S02.WEB-DLRip.25Kuzmich\Adaptatsiya.s02.e01.WEB-DLRip.25Kuzmich.avi
Format : AVI
Format/Info : Audio Video Interleave
File size : 301 MiB
Duration : 24mn 48s
Overall bit rate : 1 695 Kbps
Writing application : VirtualDubMod 1.5.10.3 | www.virtualdub-fr.org || (build 2550/release)
Writing library : VirtualDubMod build 2550/release
Video #0
ID : 0
Format : MPEG-4 Visual
Format profile : Advanced Simple@L5
Format settings, BVOP : 1
Format settings, QPel : No
Format settings, GMC : No warppoints
Format settings, Matrix : Default (MPEG)
Codec ID : XVID
Codec ID/Hint : XviD
Duration : 24mn 48s
Bit rate : 1 493 Kbps
Width : 720 pixels
Height : 400 pixels
Display aspect ratio : 16:9
Frame rate : 25.000 fps
Color space : YUV
Chroma subsampling : 4:2:0
Bit depth : 8 bits
Scan type : Progressive
Compression mode : Lossy
Bits/(Pixel*Frame) : 0.207
Stream size : 265 MiB (88%)
Writing library : XviD 73
Audio #1
ID : 1
Format : AC-3
Format/Info : Audio Coding 3
Mode extension : CM (complete main)
Format settings, Endianness : Big
Codec ID : 2000
Duration : 24mn 48s
Bit rate mode : Constant
Bit rate : 192 Kbps
Channel(s) : 2 channels
Channel positions : Front: L R
Sampling rate : 48.0 KHz
Bit depth : 16 bits
Compression mode : Lossy
Stream size : 34.1 MiB (11%)
Alignment : Split accross interleaves
Interleave, duration : 40 ms (1.00 video frame)
Interleave, preload duration : 500 ms

Когда раздача ведётся путём добавления новых серий, при каждом добавлении создётся новый торрент. Чтобы начать докачку новой серии, пользователям необходимо сделать следующее:
(1) остановить скачивание,
(2) удалить старый торрент у себя из клиента (старые серии удалять не надо),
(3) скачать новый торрент и запустить его у себя в клиенте вместо старого, при этом указать клиенту путь в старую папку, куда и должно происходить скачивание новых серий.
Ваш клиент при этом должен произвести хеширование (проверку) старой папки (если не производит сам - помогите ему сделать это), и будет докачивать только те серии, которых у вас ещё нет. Старые серии при этом не удаляются, а продолжают раздаваться!
Eсли вы уже удалили старые серии, то предотвратить повторную закачку старых серий можно, отжав галочку в соответсвующих местах при запуске нового торрента. По возможности, желательно не удалять старые серии как можно дольше, чтобы релизёр не столько продолжал раздавать старые серии, а смог сконцентрироваться на новых.
piratbit.org



Скачать Адаптация через торрент http://img16.lostpic.net/2019/03/18/d5e45a9dfa88c7bbd1c74fc9e050712d.jpg Скачать фильм Адаптация через торрент бесплантно в хорошем качестве Описание: Агент ЦРУ Эштон Айви возвращается в Ноябрьск, чтобы забрать в Америку свою любовь Марину, а заодно помочь России защитить свои ... 10 10 9
Торрент: Зарегистрирован [2019-04-02 21:19] · скачан: 161 раз
Статус: √ проверено
Размер: 6.16 GB
Как cкачать? Как скачать Адаптация через торрент | UTorrent

% Раздел Тема Автор DL S | L
TNT serials [ 17.64 GB ] Адаптация / Сезон: 2 / Серии: 1-20 из 20 + фильм о сериале [2019 WEB-DL 1080p] bober100 Скачать
1 | 0
TNT serials [ 9.02 GB ] Адаптация / Сезон: 2 / Серии: 1-20 из 20 + Фильм о сериале [2019 WEB-DL 720p] bober100 Скачать
1 | 0
TNT serials [ 6.15 GB ] Адаптация / Сезон: 2 / Серии: 1-20 из 20 + Фильм о сериале [2019 WEBRip-AVC] bober100 Скачать
2 | 0
TNT serials [ 24.45 GB ] Адаптация / Сезон: 2 / Серии: 1-20 из 20 + Фильм о сериале [2019 HDTV 1080i] bober100 Скачать
1 | 0

28-11-2019 20:33  

Отключить всю рекламу на сайте


    Дорогой пользователь! Огромная просьба, поблагодарите релизера, оцените раздачу и оставьте свои комментарий, если Вы скачали Адаптация через торрент бесплатно! Внесите свою лепту в развитие PiratBit!
    Комментировать посты могут только пользователи прошедшие не сложную регистрацию
    Показать сообщения:    

    Адаптация через торрент
    Скачать бесплатно Адаптация
    Адаптация скачать торрент
    Адаптация смотреть онлайн
    Cкачать фильм Адаптация бесплатно
    Адаптация скачать торрент в хорошем качестве
    Адаптация смотреть онлайн бесплатно в хорошем качестве


    Вы не можете начинать темы
    Вы не можете отвечать на сообщения
    Вы не можете редактировать свои сообщения
    Вы не можете удалять свои сообщения
    Вы не можете голосовать в опросах
    Вы не можете прикреплять файлы к сообщениям
    Вы можете скачивать файлы