1 сезон

3 сезон

iTunes

1

iTunes

DUB Netflix

iTunes

13

1 сезон

RePack

30

Deluxe

pack

Легкие деньги

ВАЖНО

ИГРА 18+

pack

RePack

MK11

RePack

jed

RePack

fifa19

RePack

RDR2

RePack

NEED FOR SPEED™ PAYBACK

4 сезон

9 сезон

Бесстыжие 9 сезон

Все сериалы

все сериалы на PB.wtf

RePack

FAR CRY 5

Anonymous, доброй ночи, мы не успеваем до 1 числа собрать деньги на оплату серверов, помогите нам пожалуйста в это трудное время. В качестве благодарности мы отключим Вам всю рекламу на сайте (укажите свой ник в строку Ваше имя)!

×
  
Magnet ссылка

Адаптация / Сезон: 2 / Серии: 1-20 из 20 + фильм о сериале (Александр Назаров) [2019, комедия, WEB-DL 1080p] piratbit.org

Адаптация через торрент piratbit.org

Размер: 17.64 GB | Добавлен: 2 года 2 мес. назад | Торрент скачан:151 раз
Скачать  

18-03-2019 20:30 Адаптация Скачать торрент  

Адаптация Год выпуска: 2019
Страна: Россия
Жанр: комедия
Продолжительность: ~ 00:25:00 (Серия)
Субтитры: отсутствуют

Режиссер: Александр Назаров

rating


В ролях:

Леонид Бичевин, Юрий Стоянов, Питер Джейкобсон, Евгения Брик, Артур Бесчастный, Ася Дубровская, Аружан Джазильбекова, Елена Ласкавая, Нелли Уварова, Александр Лыков, Александр Ильин

Описание:

Агент ЦРУ Эштон Айви возвращается в Ноябрьск, чтобы забрать в Америку свою любовь Марину, а заодно помочь России защитить свои природные богатства. В Ноябрьске нет Диснейленда, знаменитой картинной галереи или шикарного пляжа. Здесь даже собора со шпилем нет. Тем не менее этот город регулярно посещают сомнительные личности вроде американского шпиона Эштона Айви. Вот и сейчас агент снова в России. Он далеко не новичок, поэтому прибыл в Ноябрьск один, без прикрытия ЦРУ. Главная задача Айви в этот раз — увезти в Штаты свою любимую женщину Марину. Ради нее он готов рискнуть не только своей карьерой, но и жизнью. Сумев улизнуть от бывших коллег, он тут же попал на крючок российских спецслужб. Его оппонент – полковник контрразведки Евдокимов вербует американца и вынуждает принять участие в операции государственной важности. Китайские товарищи положили глаз на российский газ и хотят забрать себе стратегическое месторождение. Ради обретения своей любимой Эштону придется принять предложение, поэтому американцу ничего не остается кроме как сказать: «Служу России!».

Качество: WEB-DL 1080p
Формат: MKV

Видео: MPEG-4 AVC, ~ 5000 Кбит/с, 1920x1080
Аудио: AC3, 2 ch, 192 Кбит/с
скриншот  скриншот  скриншот  

Общее
Уникальный идентификатор : 207597951660891951775862709212991052098 (0x9C2DE9411B9A6F03BF3332EE57E5D942)
Полное имя : D:\Adaptatsiya.s02.2018.WEB-DL.(1080p).Getty\Adaptatsiya.s02e01.2018.WEB-DL.(1080p).Getty.mkv
Формат : Matroska
Версия формата : Version 4 / Version 2
Размер файла : 907 Мбайт
Продолжительность : 24 м. 48 с.
Режим общего битрейта : Постоянный
Общий поток : 5113 Кбит/сек
Название фильма : Adaptatsiya.s02e01.2018.WEB-DL.(1080p).Getty
Дата кодирования : UTC 2019-03-18 18:59:23
Программа кодирования : mkvmerge v7.8.0 ('River Man') 32bit built on Mar 27 2015 16:18:02
Библиотека кодирования : libebml v1.3.1 + libmatroska v1.4.2

Видео
Идентификатор : 1
Формат : AVC
Формат/Информация : Advanced Video Codec
Профиль формата : Baseline@L4
Параметр CABAC формата : Нет
Параметр RefFrames формата : 4 кадра
Параметр GOP формата : M=1, N=50
Идентификатор кодека : V_MPEG4/ISO/AVC
Продолжительность : 24 м. 48 с.
Вид битрейта : Постоянный
Битрейт : 5000 Кбит/сек
Ширина : 1920 пикселей
Высота : 1080 пикселей
Соотношение сторон : 16:9
Режим частоты кадров : Постоянный
Частота кадров : 25,000 кадров/сек
Стандарт вещания : PAL
Цветовое пространство : YUV
Субдискретизация насыщенности : 4:2:0
Битовая глубина : 8 бит
Тип развёртки : Прогрессивная
Бит/(Пиксели*Кадры) : 0.096
Размер потока : 873 Мбайт (96%)
Default : Да
Forced : Нет
Цветовой диапазон : Limited
Основные цвета : BT.709
Характеристики трансфера : BT.709
Коэффициенты матрицы : BT.709

Аудио
Идентификатор : 2
Формат : AC-3
Формат/Информация : Audio Coding 3
Расширение режима : CM (complete main)
Параметр Endianness формата : Big
Идентификатор кодека : A_AC3
Продолжительность : 24 м. 48 с.
Вид битрейта : Постоянный
Битрейт : 192 Кбит/сек
Каналы : 2 канала
Расположение каналов : Front: L R
Частота : 48,0 КГц
Частота кадров : 31,250 кадров/сек (1536 spf)
Метод сжатия : С потерями
Размер потока : 34,1 Мбайт (4%)
Default : Да
Forced : Нет

Когда раздача ведётся путём добавления новых серий, при каждом добавлении создётся новый торрент. Чтобы начать докачку новой серии, пользователям необходимо сделать следующее:
(1) остановить скачивание,
(2) удалить старый торрент у себя из клиента (старые серии удалять не надо),
(3) скачать новый торрент и запустить его у себя в клиенте вместо старого, при этом указать клиенту путь в старую папку, куда и должно происходить скачивание новых серий.
Ваш клиент при этом должен произвести хеширование (проверку) старой папки (если не производит сам - помогите ему сделать это), и будет докачивать только те серии, которых у вас ещё нет. Старые серии при этом не удаляются, а продолжают раздаваться!
Eсли вы уже удалили старые серии, то предотвратить повторную закачку старых серий можно, отжав галочку в соответсвующих местах при запуске нового торрента. По возможности, желательно не удалять старые серии как можно дольше, чтобы релизёр не столько продолжал раздавать старые серии, а смог сконцентрироваться на новых.
piratbit.org



Скачать Адаптация через торрент http://img16.lostpic.net/2019/03/18/d5e45a9dfa88c7bbd1c74fc9e050712d.jpg Скачать фильм Адаптация через торрент бесплантно в хорошем качестве Описание: Агент ЦРУ Эштон Айви возвращается в Ноябрьск, чтобы забрать в Америку свою любовь Марину, а заодно помочь России защитить свои ... 10 10 17
Торрент: Зарегистрирован [2019-04-03 10:51] · скачан: 151 раз
Статус: √ проверено
Размер: 17.64 GB
Как cкачать? Как скачать Адаптация через торрент | UTorrent

% Раздел Тема Автор DL S | L
TNT serials [ 9.02 GB ] Адаптация / Сезон: 2 / Серии: 1-20 из 20 + Фильм о сериале [2019 WEB-DL 720p] bober100 Скачать
1 | 0
TNT serials [ 6.15 GB ] Адаптация / Сезон: 2 / Серии: 1-20 из 20 + Фильм о сериале [2019 WEBRip-AVC] bober100 Скачать
3 | 0
TNT serials [ 24.45 GB ] Адаптация / Сезон: 2 / Серии: 1-20 из 20 + Фильм о сериале [2019 HDTV 1080i] bober100 Скачать
1 | 0
TNT serials [ 6.16 GB ] Адаптация / Сезон: 2 / Серии: 1-20 из 20 + Фильм о сериале [2019 WEB-DLRip] bober100 Скачать
1 | 1

28-11-2019 20:33  

Отключить всю рекламу на сайте

    Дорогой пользователь! Огромная просьба, поблагодарите релизера, оцените раздачу и оставьте свои комментарий, если Вы скачали Адаптация через торрент бесплатно! Внесите свою лепту в развитие PiratBit!
    Комментировать посты могут только пользователи прошедшие не сложную регистрацию
    Показать сообщения:    

    Адаптация через торрент
    Скачать бесплатно Адаптация
    Адаптация скачать торрент
    Адаптация смотреть онлайн
    Cкачать фильм Адаптация бесплатно
    Адаптация скачать торрент в хорошем качестве
    Адаптация смотреть онлайн бесплатно в хорошем качестве


    Вы не можете начинать темы
    Вы не можете отвечать на сообщения
    Вы не можете редактировать свои сообщения
    Вы не можете удалять свои сообщения
    Вы не можете голосовать в опросах
    Вы не можете прикреплять файлы к сообщениям
    Вы можете скачивать файлы