Достать ножи: Стеклянная луковица

MVO

Добыча

Дубляж

Уэнсдэй

1 сезон

Тор

Дубляж

13 клиническая

1 сезон

Жестокая ночь

MVO

Одни из нас

1 сезон

Deluxe

pack

Рекомендуем

30

Пиратка

ВАЖНО

ВАЖНО

Ghostwire

Пиратка

jed

RePack

nioh2

RePack

RDR2

RePack

NEED FOR SPEED™ PAYBACK

RePack

скачать торрент

Кинопоиск HD

Острые козырьки 6 сезон

6 сезон

FAR CRY 6

RePack

скачать торрент

Лицензия

скачать торрент

MVO

1

1 сезон

скачать торрент

1 сезон

скачать торрент

Лицензия

  

Аквамен / Aquaman (Джеймс Ван) [2018, фантастика, фэнтези, боевик, UHD BDRemux 2160p] [IMAX Edition] Дубляж [Лицензия] [Dolby Vision TV]

Аквамен через торрент piratbit.org

Размер: 55.31 GB | Добавлен: 3 года 10 мес. назад | Торрент скачан:171 раз
Смотреть онлайн | Скачать | Поддержите нас   

19-03-2019 05:09 Аквамен Скачать торрент  

Аквамен / Aquaman««Океан зовёт»»

Год выпуска: 2018
Страна: Австралия, США
Жанр: фантастика, фэнтези, боевик, приключения
Продолжительность: 02:23:21
Перевод: Дублированный | Лицензия
Субтитры: Русские (отдельно)
Режиссер: Джеймс Ван
В ролях:

Джейсон Момоа (Arthur), Эмбер Хёрд (Mera), Уиллем Дефо (Vulko), Патрик Уилсон (King Orm), Николь Кидман (Atlanna), Дольф Лундгрен (King Nereus), Яхья Абдул-Матин II (Manta), Темуэра Моррисон (Tom Curry), Луди Линь (Captain Murk), Майкл Бич (Jesse (Manta's Father)), Рэндолл Парк (Dr. Stephen Shin), Грэм МакТавиш (King Atlan)
Описание:
Действие фильма разворачивается в необъятном и захватывающем подводном мире семи морей, а сюжет знакомит зрителей с историей происхождения получеловека-полуатланта Артура Карри и ключевыми событиями его жизни - теми, что заставят его не только столкнуться с самим собой, но и выяснить, достоин ли он быть тем, кем ему суждено... царем!
Рейтинг:

MPAA: PG-13 - Детям до 13 лет просмотр не желателен
Качество: UHD BDRemux 2160p |
Формат: MP4
Видео: HEVC, 52700 Kбит/с, 3840x2160, 23.976 Кадр/с
Аудио: 48 kHz, AC3, 5.1, 448 Kbps | Дублированный | RUS |
Данный вид релизов (контейнер MP4) предназначен для встроенного в ТВ (соответственно, с поддержкой DV) плеер.
Воспроизводится через встроенный в ТВ плеер, как на телевизорах с поддержкой Dolby Vision, так и на ТВ с поддержкой только HDR (соответственно на ТВ с DV будет воспроизводиться в Dolby Vision, на ТВ с только HDR, в HDR).
Т.Е. Можно использовать как USB flash/HDD, так и DLNA / Plex - подобные сервисы/программы. дополнительный-внешний плеер не обязателен.

Внимание!
На моделях LG 2016 возможны сюрпризы "через раз", 2017-2018 должно идти без сюрпризов )
General
Complete name : D:\Video111\Aquaman.2018.IMAX.BDREMUX.2160p.mp4.DV.HDR.seleZen\Aquaman.2018.IMAX.BDREMUX.2160p.mp4.DV.HDR.seleZen.mp4
Format : MPEG-4
Format profile : Base Media / Version 2
Codec ID : mp42 (mp42/dby1/isom)
File size : 55.3 GiB
Duration : 2 h 23 min
Overall bit rate : 55.2 Mb/s
Encoded date : UTC 2019-03-19 04:26:06
Tagged date : UTC 2019-03-19 04:26:06

Video #1
ID : 1
Format : HEVC
Format/Info : High Efficiency Video Coding
Commercial name : HDR10
Format profile : Main 10@L5.1@High
Codec ID : hev1
Codec ID/Info : High Efficiency Video Coding
Duration : 2 h 23 min
Bit rate : 52.7 Mb/s
Width : 3 840 pixels
Height : 2 160 pixels
Display aspect ratio : 16:9
Frame rate mode : Constant
Frame rate : 23.976 (24000/1001) FPS
Color space : YUV
Chroma subsampling : 4:2:0 (Type 2)
Bit depth : 10 bits
Bits/(Pixel*Frame) : 0.265
Stream size : 52.8 GiB (95%)
Default : No
Encoded date : UTC 2019-03-19 04:26:06
Tagged date : UTC 2019-03-19 04:26:06
Color range : Limited
Color primaries : BT.2020
Transfer characteristics : PQ
Matrix coefficients : BT.2020 non-constant
Mastering display color pri : Display P3
Mastering display luminance : min: 0.0050 cd/m2, max: 4000 cd/m2
Maximum Content Light Level : 1506 cd/m2
Maximum Frame-Average Light : 459 cd/m2
Codec configuration box : hvcC

Video #2
ID : 2
Format : HEVC
Format/Info : High Efficiency Video Coding
Commercial name : HDR10
Format profile : Main 10@L5.1@High
Dolby Vision : 1.0, dvhe.07.06, EL+RPU
Codec ID : dvhe
Codec ID/Info : High Efficiency Video Coding with Dolby Vision
Duration : 2 h 23 min
Bit rate : 2 094 kb/s
Width : 1 920 pixels
Height : 1 080 pixels
Display aspect ratio : 16:9
Frame rate mode : Constant
Frame rate : 23.976 (24000/1001) FPS
Color space : YUV
Chroma subsampling : 4:2:0 (Type 2)
Bit depth : 10 bits
Bits/(Pixel*Frame) : 0.042
Stream size : 2.10 GiB (4%)
Default : No
Encoded date : UTC 2019-03-19 04:26:06
Tagged date : UTC 2019-03-19 04:26:06
Color range : Limited
Color primaries : BT.2020
Transfer characteristics : PQ
Matrix coefficients : BT.2020 non-constant
Mastering display color pri : Display P3
Mastering display luminance : min: 0.0050 cd/m2, max: 4000 cd/m2
Codec configuration box : hvcC+dvcC

Audio
ID : 3
Format : AC-3
Format/Info : Audio Coding 3
Commercial name : Dolby Digital
Codec ID : ac-3
Duration : 2 h 23 min
Bit rate mode : Constant
Bit rate : 448 kb/s
Channel(s) : 6 channels
Channel layout : L R C LFE Ls Rs
Sampling rate : 48.0 kHz
Frame rate : 31.250 FPS (1536 SPF)
Bit depth : 16 bits
Compression mode : Lossy
Stream size : 459 MiB (1%)
Language : Russian
Service kind : Complete Main
Default : No
Encoded date : UTC 2019-03-19 04:26:06
Tagged date : UTC 2019-03-19 04:26:06



Скачать Аквамен через торрент https://d.radikal.ru/d31/1903/7b/989f62ebc09d.png Скачать, смотреть онлайн Аквамен бесплантно в хорошем качестве Описание: Действие фильма разворачивается в необъятном и захватывающем подводном мире семи морей, а сюжет знакомит зрителей с историей ... 8.4 10 12
Info! Золотая раздача, скачанное не засчитывается.
Торрент: Зарегистрирован [2019-03-19 05:09] · скачан: 171 раз
Статус: √ проверено
Размер: 55.31 GB
Как cкачать? Как скачать Аквамен через торрент | UTorrent

% Раздел Тема Автор DL S | L
Фильмы 2018 [DVDrip, WEB-DLRip, HDrip] (DUB, MVO) [ 1.08 GB ] Аквамен / Aquaman | Лицензия | BDRip-AVC DOMINION Скачать
2 | 0
Фильмы (HD 720p, 1080p) (48-60 fps) [ 6.35 GB ] Аквамен / Aquaman | Дубляж | DLRip 720p / 60 FPS slaventi-69 Скачать
1 | 3
Фильмы (WEB-DL 720p, 1080p) [ 6.43 GB ] Аквамен / Aquaman | iTunes | 1080p bober100 Скачать
4 | 0
3D Фильмы [ 7.47 GB ] Аквамен в 3D / Aquaman in 3D | Лицензия | 1080p, Дубляж Лицензия slaventi-69 Скачать
2 | 0
Фильмы [HD 720p, 1080p] (Хороший звук DUB, MVO) [ 9.48 GB ] Аквамен / Aquaman | Лицензия | 1080p, (10 bit bober100 Скачать
2 | 1
3D Фильмы [ 16.94 GB ] Аквамен в 3Д / Aquaman 3D | HDRezka Studio | 1080p sheker187 Скачать
2 | 0
Ultra HD (UHD: 2K, 4K, 8K) [ 64.33 GB ] Аквамен / Aquaman | DUB | 2160p sheker187 Скачать
1 | 0

28-11-2019 20:33  


Отключить вcю реклaмy на сайте, в т.ч. и в плеере онлайн просмотра!

    Дорогой пользователь! Огромная просьба, поблагодарите релизера, оцените раздачу и оставьте свои комментарий, если Вы скачали Аквамен через торрент бесплатно!!
    Комментировать посты могут только пользователи прошедшие не сложную регистрацию
    Показать сообщения:    


    Аквамен через торрент
    Скачать бесплатно Аквамен
    Аквамен скачать торрент
    Аквамен смотреть онлайн
    Cкачать фильм Аквамен бесплатно
    Аквамен скачать торрент в хорошем качестве
    Аквамен смотреть онлайн бесплатно в хорошем качестве
    Вы не можете начинать темы
    Вы не можете отвечать на сообщения
    Вы не можете редактировать свои сообщения
    Вы не можете удалять свои сообщения
    Вы не можете голосовать в опросах
    Вы не можете прикреплять файлы к сообщениям
    Вы можете скачивать файлы
    Аквамен / Aquaman [2018, фантастика, фэнтези, боевик, UHD BDRemux 2160p] [IMAX Edition] Дубляж [Лицензия] [Dolby Vision TV] смотреть онлайн, скачать торрент picoco.icu